&title=Les vents de Chatellerault
&artist=a_hisa
&first=0
&des=Dororo
&lv_5=13+
&inote_5=(200)
{1},
{12}3h[12:5],,4h[12:4],,,,,,,
{12}2,,,3,,,4,,,
{12}6h[12:5],,5h[12:4],,,,,,,
{12}7<3[2:1],,,3,,,,,,
{12}2h[12:5],,4h[12:4],,,,,,,
{12}2,,,35,,,46,,,
{12}7h[12:5],,5h[12:4],,,,,,,
{12}8z4[2:1],,,4,,,,,,
{12}3,,3h[4:1],,,4,2,,,
{12}12,,8,3,,3,4,,,
{12}2,,2h[4:1],,,1,2,,,
{12}37,,,8,,8,2,,,
{12}6,,6h[4:1],,,5,7,,,
{12}87,,1,6,,6,5,,,
{12}7,,7h[4:1],,,8,7,,,
{12}1,,1,8,,,2,3,4,
{12}5b>6[2:1]/7h[4:3],,,,,,,,,
{12},,,58,,,6,,5,
{12}7,,,14,,,3,,4,
{12}2,,,18,,6,5qq1[4:3],,5,
{12}7h[4:3],,,,,,,,,
{12},,,26,,,17,,3h[12:10],
{12}5<4[2:1],,,,,,,,,
{12},,,26,,1,8-5[8:1],,8,
{12}2h[12:5],,,,,4,3,,3,
{12}8,,8-5[8:1],,,2h[4:1],,,4,
{12}3,,,25,,,6,4,5,
{12}3,,,25,,,1pp5[4:3],,1,
{12}7h[4:3],,,,,,,,,
{12},,,46,,7,3^6[8:1],,3,
{12}8h[12:5],,,,,4,3^6[8:1],,3,
{12}1h[2:1],,,,,,6,5,4,
{12}3/7bpp8[4:1],,,8>4[4:1],,,,,,
{12}8pp1[4:1],,,4,,,,,,
{12}7pp8[4:1],,,8<4[4:1],,,4>8[4:1],,,
{12}8,,,,,,17,,,
{12}2qq1[4:1],,,1<5[4:1],,,,,,
{12}1qq8[4:1],,,5,,,2>1[2:1],,,
{12},,,,,,,,,
{12}2,4,3,5,4,6,5,7,1,
{12}8-3[8:1],,,7h[4:1],,,1,,1,
{12}8-3[8:1],,,6h[4:1],,,2,,2,
{12}8-3[8:1],,,5h[4:1],,,3,4,5,
{12}6,,,57,,,48,,,
{12}1/3V15[4:1],,,,,,6,,,
{12}8/6V84[4:1],,,,,,3,,,
{12}2,4,3,6,4,5,3,7,5,
{12}1bw5[4:1],,,,,,,,,
{12}1,,2,4,,3,5,,4,
{12}6,,7,8-4[8:1],,8,7,,,
{12}1,,2,4,,3,5,,4qq3[12:5],
{12}6<3[3:1],,,,,,,,,
{12}4,,5,4,,6,5,,7,
{12}6^3[8:1],,,6^1[8:1],,,1,,,
{12}2,,4,3,,5,4,,6pp1[12:5],
{12}5qq4[12:4],,,,,,,,,
{12}8,,7,5,,6,4,,5,
{12}3,,2,1-5[8:1],,1,2,,,
{12}8,,7,5,,6,4,,5pp6[12:5],
{12}3>6[3:1],,,,,,,,,
{12}2,,2,4,,4,3,8,3,
{12}7,,7,5,,5,6,1,6,
{12}2-6[8:1],,,7b/2b,,8^5[12:1],1^3[12:1],,8qq6[12:4],
{12}1p4[12:3],,,,,,,,,
{12}2,,2,,,3,4,,,
{12}2,,,3,,,4,,,
{12}7,,7,,,6,5,,,
{12}7,,,6,,,5,,,
{12}2,,2,,,3,4,,,
{12}2,,,3,,,4,,,
{12}7,,7,,,6,5,,,
{12}45,,,36,,,2b/7b,,,
{12}1,,3,4,,2,8,,4,
{12}5,,1,7,,5,6,,8,
{12}7,1,6,2,,7,5,,3,
{12}4>6[3:1],,,1,,,,,,
{12}2h[4:1],,,4,,4,3,,3,
{12}7h[4:1],,,5,,5,6,,6,
{12}1h[4:1],,,4,,4,2,,2,
{12}8>6[3:1],,,3,,,1b,,,
{12}7qq2[2:1],,,,,,2,,,
{12}4qq7[2:1],,,,,,7,,,
{12}1qq4[2:1],,,,,,4,,,
{12}5qq4[4:1]*pp6[4:1],,,,,,,,,
{12}2pp7[2:1],,,,,,7,,,
{12}5pp2[2:1],,,,,,2,,,
{12}8p3[4:1]*q5[4:1],,,,,,,,,
{12}3,4,3,7,5,7,1,4,1,
{12}6-1[8:1],,,5,,,3,,3,
{12}8-4[8:1],,,1,,,5,,5,
{12}3-8[8:1],,,4,,,6,,6,
{12}1-5[8:1],,,8,,,4,,4,
{12}6-1[8:1],,,3-8[8:1],,,7,,7,
{12}2^5[4:1],,,5^8[4:1],,,8^3[4:1],,,
{12}3>5[2:1],,,,,,,,,
{12}4bqq3[4:1]*pp5[4:1],,,4b,,,,,,
{12},,,,,,,,,
{12},,,,,,,,,
{12},,,,,,,,,
{12},,,,,,,,,
{12},,,,,,,,,
{12},,,,,,,,,
{12},,,,,,,,,
{12},,,,,,,,,
{12}4h[6:1],,,,,3h[12:4],5h[2:1],,,
{12},,,,,,3,,,
{12}6h[6:1],,,,,7h[12:4],4h[2:1],,,
{12},,,,,,7,,,
{12}2h[6:1],,,,,1h[12:4],5h[2:1],,,
{12},,,,,,1,,,
{12}7h[6:1],,,,,6h[12:4],2h[2:1],,,
{12},,,8,,,1b/7b,,,
{12}2,3,4,2,3,4,1<5[4:1],,1,
{12}7h[4:1],,,,,,48,,,
{12}3,4,5,3,4,5,2<5[4:1],,2,
{12}8h[4:1],,,,,,57,,,
{12}4,5,6,4,5,6,3>5[8:3],,3,
{12}7<1[8:3],,,3,,,7,,7,
{12}8,,,36,,,2,,2,
{12}1w5[8:1],,,1,,,28,,,
{12}7,6,5,7,6,5,8>4[4:1],,8,
{12}2h[4:1],,,,,,51,,,
{12}6,5,4,7,6,5,8,7,6,
{12}1,,1,8,2,7,3,6,4,
{12}7q4[4:1],,,4p6[4:1],,,5,,,
{12}8h[4:1],,,6h[4:1],,,4,,,
{12}2p5[4:1],,,5q3[4:1],,,4,,,
{12}1h[4:1],,,3h[4:1],,,5p4[3:1],,,
{12}6h[4:1],,,,,,2,5,4,
{12}7b-3[8:1],,,5b-2[8:1]*-8[8:1],,,5b,,,
{12}3,,4,3,,8,3>7[4:1],,4,
{12}3,,,4pp6[6:1],,4,1,,,
{12}2,,8,2,,3,2pp7[2:1],,8,
{12}2,,,1,,,5,,,
{12}8,,6,8,,3,8,,6,
{12}8pp2[6:1],,,8qq6[6:1],,,4,,,
{12}2,,1,2,,4,2pp8[2:1]*>7[2:1],,1,
{12}2b,,,,,,,,,
{12}6,,5,6,,1,6<2[4:1],,5,
{12}6,,,5qq3[6:1],,5,8,,,
{12}7,,1,7,,6,7qq2[2:1],,1,
{12}7,,,1,,,5,,,
{12}7,,7,5,,5,6,1,6,
{12}2,,2,4,,4,3,8,3,
{12}7-3[8:1],,,2b/7b,,1^4[12:1],8^6[12:1],,1,
{12}8bz4[12:3]*v5[12:3],,,,,,,,,
{12}2>6[4:1],,,6>2[4:1],,,1,,,
{12}7p5[3:1],,,1h[4:1],,,,,,
{12}2,,2,4,,4,5,,5,
{12}7bp5[3:1],,,3h[4:1],,,,,2,
{12}4^7[8:1],,,1,,2,8h[4:1],,,
{12}5^2[8:1],,,8,,7,1h[4:1],,,
{12}4^7[8:1],,,1,,2,8h[4:1],,,
{12}5,,7,3,7,3,8b,,,
{12}7<3[4:1],,,3<7[4:1],,,8,,,
{12}2q6[8:1],,,8h[4:1],,,1,8,1,
{12}7,,7,5,,5,4,,4,
{12}2bq3[3:1],,,6h[4:1],,,,,7,
{12}4-1[8:1],,,8,,8,2>6[4:1],,,
{12}6<2[4:1],,,2,,,6,,,
{12}5-8[8:1]/2,,,1,,1,7h[4:1],,,
{12}6,7,7,5,8,8,4,1,1,
{12}3bpp3[1:1],,,,,,,,,
{12},,,,,,,,,
{12},,,,,,,,,
{12},,,,,,,,,
{12}2h[4:3],,,,,,,,,
{12}3h[4:3],,,,,,,,,
{12}4h[4:3],,,,,,,,,
{12}5h[12:5],,,,,6h[12:4],,,,
{12}7h[12:4],,,,{24}8b,1>7[24:51],2>7[24:50],,{12},,,
{12},,,,,,,,,
{12},,,,,,,,,
{12},,,,,,,,,
{12},,,,,,,,,
E
