&title=スターナイトスノウ - PoppinParty ver.
&artist=n-buna/Orangestar
&first=0.083
&des=DJL2374
&lv_5=13+
&des_5=DJL2374
&inote_5=
(180){4},{2},{12}5,,5,
{16}4,{8},{16}3h[64:31],{2},{12}4,,4,
{16}5,{8},{16}6h[16:5],{4},3>8[4:1],3/5<8[4:1],
5>2[4:1],5-8[4:1],5-2[4:1],{8}5,B6,
E8,C,4,C,{4}5,{12}6/3,,2,
{6}1/8,{12}7,8/2,,4,{6}3/5,{12}4,6/3,,5,
{6}4/6,{12}4,6/2,,6,{6}4/7,{12}5,4/6,,5,
{6}4/7,{12}2,1/7,,5,{6}6,{12}4,3,,5,
{4}6<1[4:1],{12}6/1-5[4:1],2x,3x,4x,5x,4x,3x,,5,
{16}4,{8},{16}4,6,{8},{16}6,3/5,{8},{16}3,7/4,{8},{16}7,
2/6,{8},{16}2,8/3,{8},{16}8,4/7,{8},{16}4>1[16:5],5,{8},{16}4,
{12}5,6x,7x,8x<5[0.25##0.4167],{48},,,,,{16}8,{12}1,2x,3x,4x-8[0.25##0.4167],{48},,,,,{16}4x,
{12}7x,6x,5x,4x,3x,2x,{4}1xp5[4:3],1bx,
{2},{4}6x<2[2:1],6b,
{2},{4}5<8[2:1],3/5b,
,5-2[4:1],5bx/2-7[4:1],7-4[4:1],
4-1[4:1],1-6[4:1],{2}6>6[4:3],
,{4}4,4,
,5,4>1[8:3],5/4,
,6,3h[4:1]/5-7[4:1],5bx,
4,{12}5,4,5,{4}4,4/8,
1/5,{12}8,,8,{6}4,{12}4,7,,7,
{4}3,{12}4h[6:1],,6,{4}3h[4:1],7,
6/2,{32}7,{8},{32}7,{16},{32}4/6,{8},{32}4,{16},{12}3/6h[6:1],,3,
{4}5,{12}3h[6:1],,6,{4}4-1[4:1],4/6,
7,{12}1,,B1,{6}8,{12}B8,1h[4:1],{6},{4}8,
7/2h[4:1],6,4/5,
{6}6/3,{12}4,5,4,5,{4}4b-8[8:5],4,
{2},{12}7bh[12:5],{3},{12}2bh[3:1],
{4}8,8bh[4:1],{6}2,{12}2,7,,7,
{4}1h[4:1],8,{12}2/7h[4:1],{3},{12}7,
{6}2,{12}2,6,,6,{6}3h[6:1],{12}5,4-2-8-4[0.2222##0.7778],,4,
{6}7,{12}7,6x,,6,{6}5x,{12}5,2-8-6-2[0.2222##0.7778],,2,
{6}6,{12}6,5x,,5,{6}4x,{12}4x,2h[4:1],{6},7h[6:1],
{12}2,6,3,5,{6}4,{12}4,5,,5,
{6}3,{12}3,6h[4:1],{6},2,{12}3,7,,6,
{6}1,{12}2,8,{48},,,,,{16}7,{6}1,{12}1h[4:1],7,,6,
{6}2,{12}3,5,,6,{4}3h[4:1],{12}4,5,6,
7,8,1,4/2,,,,,,{4}8b/1bh[4:1],
7,{12}2/6h[6:1],,3,{6}6<8[6:1],{12}4,6,,4,
{6}3x,{12}3,8,,7,{6}2/6,{12}6,1bh[4:1],{6},{4}5,
{12}2/7h[6:1],,3,{6}7x/4,{12}6,2h[6:1],,6,
{6}2x,{12}3,6/4,,7,{6}4,{12}6,5/3bh[4:1],{6},{4}7,
{12}6/3h[6:1],,7,{6}3>1[6:1],{12}5,3,,5,
{6}6x,{12}6,1,,2,{6}5/3,{12}1,2/5h[6:1],,2,
{6}6,{12}7,4h[6:1],,7,{6}3,{12}2,6,,5,
{6}3,{12}3,5,,5,{6}4,{12}6bh[3:1],3,{6},{4}2,
{12}2/5h[6:1],,3,{6}6<8[6:1],{12}4,6,,4,
{6}3x,{12}2,8,,7,{6}2/6,{12}3,4/6bh[4:1],{6},{4}4,
{12}2/6h[6:1],,3,{6}6x,{12}6,2,,2,
{6}7,{12}7,3,,3,{6}6,{12}6,5/2bh[4:1],{6},{4}7,
{12}3/8h[6:1],,2,{6}7<5[6:1],{12}1,7/2,,1,
{6}2x,{12}2,7,,6,{6}3,{12}5,3h[6:1],,7,
{6}4x,{12}4,6h[6:1],,3,{6}5x,{12}5,4,,4,
{4}5,{12}2,6,3,7,3,6,2,{6},{4}3/6,
1/5,5/1,3/7,
{6}7/3,{12}7,3,,3,{6}6,{12}6,4,{6},{4}4/8,
{12}6/2,,2,{6}7,{12}7,3,{6},{4}6/3,
{12}7/1,2,3,4/8,7,6,5/3,{6},{4}7/4,
6/3,6/3,7/2,
2/6,{12}4/8,,8,1,8,1,8,{6},{4}7/2,
{12}8,7,6,1/5,2,3,4/5h[4:1],{6},3,
{12}6h[4:1],2,,3,5,4,5,4h[6:1],,6,
{6}3h[6:1],{12}7,2h[6:1],,8,{6}1h[6:1],{12}7,6b/2b,{3},,,,,{6}6,
{12}6,3h[12:5],{3},{6}7h[3:1],
,{4}2,8h[12:5],
{6},1h[3:1],,7,{12}7,2h[4:1],{6},6,
{12}3,5,{24},{8}4,{6}5,{12}6,4h[4:1],,6<8[4:1],
{6},6,{12},4,{6}3,{12}7,3h[4:1],,7<5[4:1],
{6},7,{12},4,{6}3,{12}6,3h[4:1],{6},{4}7h[4:1],
{12}4>2[0.2222##0.3333],,4,{6},{12}8h[4:5],1x,{3},{6}2,
,{12}3,{3},{12}4,
{4},{12}6,,3,{6},{12}3,6,,4,
{6}5,{12}4,5,,4,{6}5,{12}3,6,4,5,
{6}4,4b/5b,{8},,,{24}8bx,7bx/1bxh[4:1],6bx,{6}5bx,
{4}5x,{12}2/6h[6:1],,3,{6}6<8[6:1],{12}4,6,,4,
{6}3x,{12}3,8,,7,{6}2/6,{12}6,1bh[4:1],{6},{4}5,
{12}2/7h[6:1],,3,{6}7x/4,{12}6,4,{24},{8}3/6,
{6}7,{12}4,8,,8,{6}3,{12}3,8b/2bh[4:1],{6},{4}7,
{12}3/7h[6:1],,2,{6}7<5[6:1],{12}1,7,,1,
{6}2x,{12}3,5,,5,{6}4,{12}5,3h[6:1],,6,
{6}4,{12}4,7h[6:1],,2,{6}7x,{12}6,3,,2,
{6}6,{12}7,3,,4,8,3,8h[3:1],2b,{6},{4}1,
{12}6/2h[6:1],,7,{6}2>4[6:1],{12}8,2,,8,
{6}7,{12}6,4,,3,{6}6,{12}5,2bh[4:1],{6},{4}5,
{12}2/7h[6:1],,3,{6}4/7,{12}6,4,,3/6,
{6}5,{12}4,3,,2,{6}6,{12}7,5bx/1bh[4:1],{6},{4}6,
{12}6/2h[6:1],,7,{6}2>4[6:1],{12}8,2,,8,
{6}7x,{12}4,6,,6,{6}3,{12}5,2bh[6:1],,5,
{6}3,{12}4,6bh[6:1],,4,{6}6x,{12}5,4,,3,
{6}5,{12}6,3,5,4,6,4,5,3,6,4,
6,4,5,3,7,4,6,2-7-4-1-6-3>3[0.2222##4.6667],5,2,,,,,,{4}6b,
,6b,
,7b,,7b,
,7bx,,8bx,
,8bx,
E
