&title=Sophie
&artist=Ave Mujica
&first=0.02
&lv_5=14
&des_5=Memori “嗚咽と涙に”
&inote_5=
{4}(200.02),{16},,,1s5[8:1],,,,1b,,,,7,
,7,,7,,8,,8,,1,,1,,2-5[8:1],,1,
,2,,7-4[8:1],,8,,7b-1v3[4:1],,,,7b,,6b,,6,
,6,,6,,6,,5,,5,,4,,3,,4<7[8:1],
,3,,4,,1,,1bs5[8:1],{4},{16},8h[8:1],,1,
,8h[8:1],,3,,8h[8:1],,4,,8h[8:1],,5,,8h[8:1],,6,
,8h[8:1],,7,,8h[8:1],,{32}1b,2,3,4,{16}5,,7,8,7,,2,
1,2,1,2,,7,6,5,4,3-8[16:1],,3,,3,,7b-4[16:1],
,,,1b-5[16:1],,,,8b,{4},{16},2/8,,2,
,2/8,,,,1/8,,8/1-5[16:1],,,,1/7-4[16:1],,,,7/2-6[16:1],
,,,2/8w4[16:1],,,,8,{4},{16},7/1,,7,
,1/7,,,,6/5,,6/5>2[16:1],,,,5/8-4[16:1],,,,8/2-6[16:1],
,,,2,,,,8b-4b[16:1],{4},{16},,,1/2,
,3/8,,,,2/7,,1/8-4[16:1],,,,8/2-5[16:1],,,,2/7-3[16:1],
,,,7/1w5[16:1],,,,1,,,,7,8,7,,7,
,7,,6,,5,,4,,{32}3,4,5,6,7,8,1,2,3,4,5,6,{16}7w3b[16:1],
,,,7b,,,,2bx/7bx,{4},{16},2pp5[2:1],,8,
,2,,7h[8:1],,,,7h[8:1],,,,6h[8:1],,4,,6h[8:1],
,2,,1-5[16:1],,5,,1b,,,,7V53[4:1],,1,,,,2,
,2,,2,,2-5[16:1],,,,8,,7,,6,
,3,4,3,4,3,5,2b<6[16:3],{4},{16},5h[8:1],,,,5h[8:1]/7h[8:1],
,,,5h[8:1]/8h[8:1],,,,5h[8:1]/1h[8:1],,,,1/5,2,3,
4,5,,7,6,5,,5<1[8:1],,,,5,,2h[8:1],,,,3h[8:1],
,,,4h[8:1],,7b<5[16:1],{4},{16},1,,8,
,7,8,7-4[16:1],8,7,8,7b,,,,2h[8:1],,7qq4[8:5],,2,
,7,,2h[8:1],,,,2h[8:1],,,,3h[8:1],,5,,3h[8:1],
,7,,8-4[16:1],,4,,8b,,,,2V46[4:1],,8,,,,7,
,7,,7,,7-4[16:1],,,,1,,2,,3,
,6,5,6,5,6,4,7b>3[16:3],{4},{16},4h[8:1],,,,4h[8:1]/2h[8:1],
,,,4h[8:1]/1h[8:1],,,,4h[8:1]/8h[8:1],,,,8/4,3/7,2/6,
1/5,4,3,2,1,8,7,6<1[8:1],,,,6/2b,3,4,5,6,
7,8,1,5h[8:1]/2bh[4:1],,,,5<1[8:1],{4},,{16},7/2,
,1/8,,,,{32}1b/8bqq6qq4qq2qq8b[8:27],2/7,3/6,4/5,{1},,,{2},{16}A5,
A6,A7,A8,A1,A2,A3,A4,7/A5f,,7,,7,,6/B2f,
,6,,6,,5/B8f,,5,,5,,4/B7f,,3,,2,
,1,,8,,7,,6,5,4,3,2,1,8,7,{32}3,4,
5,6,7,8,1,2,3,4,5,6,7,8,1,2,{16}3/Cf,{4},{16},2/7,,,,8/1,
,8z4[16:1]/1s5[16:1],,,,8b/1b,,,,8,,8,,4/8,
,3/7,,2v5[16:1]/6v1[16:1],,,,2b/6b,{4},{16},1/2,,,,7/8,
,7<4[16:1]/8>3[16:1],,,,7b/8b,,,,8,,7,,6,
,5,,4v6[16:1]/8v2[16:1],,,,4b/8b,{4},{16},1pp4[8:3],,4,
,5,,6,,7,,8b,,,,3/6,,3/6,,,,1/8,
,8/1>4[8:1],,,,1<6[8:1],,,,1-4[8:1],,,,1-6[8:1],
,,,1,,,,{32}1b/7b,2,{16}3,{8},{32}8b/3b,4,{16}5,{8},{32}3b/1b,8,
{16}7,{8},{32}8b/2b,7,{16}6,{8},{32}1b,2/8,3/7,4/6,{16}5,,3/7,,7/3,,,,2/6,
,2v5[16:1]/6v1[16:1],,,,2b/6b,{4},{16},7/2,,,,6/3,
,3-8[16:1]/6-1[16:1],,,,3b/6b,{4},{16},7/8,,,,1/2,
,1<6[16:1]/2>5[16:1],,,,1b/2b,,,,8qq5[2:1],,6,,5,
,4,,3,,2,,1b,,,,2>5[8:1],,,,6,
,6,,6,,7,,1b/8b,,,,2/7,,2/7,,1/8,
,1/8,,1/8<1[8:3],,1/8,,Cf,{4},{16},,,{32}2,3,
4,5,6,7,8,1,2,3,4,5,6,7,8,1,2,3,4,5,{16}6,,1/2,,3,,4,
,5/6,,7,,8,,1/2,,3/4,,5,4x,5,3x,5,
2x,5,1x,5,8x,5,7x,5,6x,5w1[4:1],{4},,{16},6,
,5,,4,,3,,2-8[16:1]/1-5[16:1],,,,1b/2b,
,,,7bx/6bxz2[16:1],{4},,{16},7/1,,7,
,7/1,,,,8/1,,1/8-4[16:1],,,,8/2-5[16:1],,,,2/7-3[16:1],
,,,7/1w5[16:1],,,,1,{4},{16},2/8,,2,
,8/2,,,,3/4,,3/4<7[16:1],,,,4/1-5[16:1],,,,1/7-3[16:1],
,,,7,,,,1b-5b[16:1],{4},{16},,,8/7,
,6/1,,,,7/2,,8/1-5[16:1],,,,1/7-4[16:1],,,,7/2-6[16:1],
,,,2/8w4[16:1],,,,8,,,,2,1,2,,2,
,2,,3,,4,,5,,{32}6,5,4,3,2,1,8,7,6,5,4,3,{16}2w6b[16:1],
,,,2b,{4},{16},{32}B8,B1,{8}B2,{1},{4},{16},6xh[4:1]/4xh[8:3],
{4},,,{8},2x,
2xh[16:23],{16},,,5xh[8:3],{4},,{16},B1,
{8},{16}B8,{8},{16}B7,{8},B6,{16},B5,{8},{16}B4,
{8},{16}B3,{4},{8},{16}A8,A7,{4}A6,
{16}C,{4},{16}B1,B2,B3,B4,B5,B6,B7,B8,B1,B2,B3,
,Ch[16:9],{4},,,{16},B7,
,,,B3,,,,B5,,,,C,{4},{8},E2,
{16},E3,{8},E4,E5,{16},6h[8:15],{4},{8}B4,
A2,{32}A1,{16},{32}A8,{16},A7,A5,A4,A3,A2,{4},{8}4,
{4}4q1[16:3],{8}4,{4},{8}1/7,
,1/7,,2/8,{32}8/2,3/7,4/6,5,{16},,,1,8,7,
6,5,,,,1-5[16:1]/8-4[16:1],{4},{16},,,2,{32},2,{16},{32}2,
{16},{32}3,{16},3,{32},3,{16},{32}4,{16},{32}4,{16},4/6,,,,4h[32:1]/7h[32:1],,,,4h[16:1]/8h[16:1],
,,,4h[32:3]/1h[32:3],,,,4h[8:1]/2h[8:1],,,,4h[32:5]/1h[32:5],,,,4h[4:1]/8h[4:1],
{4},{16},,,{32}1/8,2/7,3/6,4/5,{8},{16}1/8,,1,
,1/8,,,,2/8,,2,,2/8,,,,3/8,,3,
,3/8,,,,4/8,,4,,4/8,,,,5/8,,5,
,5/8,,,,6/8,,6,,6/8,,6,,6/8z4[8:3],{4},,{16},,,{32}1/8,
2/7,3/6,4/5,{8},{16}1/8,,8,
,8/1,,,,1/7,,7,,1/7,,,,1/6,,6,
,1/6,,,,5/1,,5,,5/1,,,,1/4,,4,
,1/4,,,,1/4,,4,,4/1,,4,,4/1s5[4:1],{4},,{16},1,
8,7,6,5h[4:1],{4},{16},5<1[8:3],
{4},{16},,,3h[8:3],{4},{16},,,3>7[8:3],
{2},{8}6h[16:3],,5h[16:3],
,4h[16:3],,3h[16:3],{4},{16},3<6[4:1],,,,8,
,,,1,,,,2h[8:1],,1h[8:1],,2>5[8:1],,1h[8:1],
,2,{4},{16},,,7h[8:1],,8h[8:1],,7<4[8:1],,8h[8:1],
,7,{4},{16},,,2h[8:1],{8},{16}3h[8:1],{8},{16}4h[8:1],
,7h[8:1],{8},{16}6h[8:1],{8},{16}5h[8:1],,1h[8:1],{8},{16}2h[8:1],{8},{16}3h[8:1],
,8h[8:1],{8},{16}7h[8:1],{8},{16}6h[8:1],,5,,5,,5,,5,
,4,,4,,4,,4,,3,,3,,3,,3,
,2/4,,5,,6/4,,,,8,,8,,8,,8,
,1,,1,,1,,1,,2,,2,,2,,2,
,3/1,,8,,7/1,,,,2,,2-5[16:1],,2,,2,
,8,,8-4[16:1],,8,,8,,1,,1-5[16:1],,1,,1,
,7w3[16:1],,7,,7,,,,1>8[1:1]/8<1[1:1],{1},{4},,,{16},,,2h[8:1]/7pp4[8:13],
,,,2h[8:1],,,,2h[8:1],
,,,2h[8:1],,,,3h[8:1],,,,3h[8:1],,,,3h[8:1],
,,,3h[8:1],,,,7h[8:1]/2qq5[8:13],,,,7h[8:1],,,,7h[8:1],
,,,7h[8:1],,,,6h[8:1],,,,6h[8:1],,,,6h[8:1],
,,,6h[8:1],,,,7V15[8:3]/2V84[8:3],{4},,,{16},,,1/8,
2/7,3/6,,3/6,,2/7,
,2/7,,1/8,,1/8,,1/8,,1,8,2,7,1,8,2,
7,1,8,2-5b[16:1],7,1,8,2b,{4},{16},,,Ch[8:3],
{4},,{16},8bw4b[1.4998##0.075],{1},{16},,,8b,
,,,6/1,
,1/6,,,,{32}1b/6b,2/7,{16}3/8,{8},{16}3,,3,,,,2/7,
,2/7,,,,{32}1b/8b,2/7,{16}3/6,{4},{16}6,,5,
,4,,3w7[16:1],{4},,{16},1pp4[8:3],,4,
,5,,6,,7,,8b,,,,1/5,,3/7,,,,2/6,
,5/1-5[16:1],,,,1/7-4[16:1],,,,7/2-6[16:1],,,,2/8-4[16:1],
,,,8/2>5[16:1],,,,2/8<5[16:1],,,,8/1-5[16:1],,,,1b<5[16:1]*>5[16:1],
,,,1bw5[16:1],,,,1b,,,,{32}8,7,6,5,4,3,2,1,{16}8,
,1/5,,3v8[16:1]/7v4[16:1],,,,3b/7b,,,,1,,8,,,,3/6,
,3-8[16:1]/6-1[16:1],,,,3b/6b,,,,2/7,,2/7,,,,1,
,1w5[16:1],,,,1b,,,,7qq4[8:7],,8,,1,
,2,,3,,2,,1>4[8:1],{4},{16},,,3/8,
,2/7,,1/6,{2},{4}3V15[16:9],
,,{16},,,6-2-4[8:3],{4},,,{16},,,Cfh[4:3],
{4},,,{16},,,2,
1x,2,8x,2,
7x,2,6x,2,5x,2,4x,2b,,,,7,8,7<5[16:1],,1,
,2,,3,,4,,{32}8b,7,6,5,{8},{16}2,1,2<8[8:1],,3,
,4,,5,,6,,{32}8b,1,2,3,{8},{16}8,1,8,,2,
,3/5,,3/5,,4/6,,{32}4b/6b,3/7,2/8,1,{4},{16}2h[8:1]/8h[8:1],,,,2/8,
,2v5[16:1]/8v5[16:1],,,,8b/2b,,,,1,,8<6[16:1],,2,
,8,,3>1[16:1],,5,,3b,,,,6/2,,6/2,,2/6,
,1/7,,1/7,,1/7,,{32}8b,7/1,6/2,3/5,{16}4,,1,8,1,,2,
,3,,4>2[32:3],,5,,{32}6b,7,8,1,{4},{16}1-5[16:1],,8-4[16:1],
,1-3[16:1],,8<1[8:5],,1b,,8b,{4},,{16},{32}A1,
A8,A7,A6,A5,A4,A3,A2,{16}A1f,{4},{16},8qq5[8:5]/1pp4[8:5],{1},{16},Cfh[4:1],
{4},,,{16},4bw8[8:1],
{4},,{16},1/7,
,7/1,{4},{16},2,,,,3/4,
,3/4,,,,4/3>8[16:1],,,,3b/4<7[16:1],,,,4b/3-7[16:1],
,,,3b/4>5[8:3],,,,4b,{4},{16},,,2,
,6,,3,,7,,4,,{32}8,7,6,5,{8},{32}7,6,5,4,{8},{32}6,
5,4,3,{8},{16}1/8,,2b/7b,,,,7/2,,7/2,,8/1,
,8/1,,8/1>8[8:3],,8/1,,Cf,{4},{16},,,{32}7,6,
5,4,3,2,1,8,7,6,5,4,3,2,1,8,7,6,5,4,{16}3,,8/7,,6,,5,
,4/3,,2,,1,,8/7,,6/5,,4,5x,4,6x,4,
7x,4,8x,4,1x,4,2x,4,3x,4w8[4:1],{4},,{16},3,
,4,,5,,6,,7-1[16:1]/8-4[16:1],,,,8b/7b,
,,,1bs5[16:1]/8bz4[16:1],,,,1b/8b,{4},{16},2/8,,2,
,2/8,,,,1/8,,8/1-5[16:1],,,,1/7-4[16:1],,,,7/2-6[16:1],
,,,2/8w4[16:1],,,,8,{4},{16},7/1,,7,
,1/7,,,,6/5,,6/5>2[16:1],,,,5/8-4[16:1],,,,8/2-6[16:1],
,,,2,,,,8b-4b[16:1],{4},{16},,,1/2,
,3/8,,,,2/7,,1/8-4[16:1],,,,8/2-5[16:1],,,,2/7-3[16:1],
,,,7/1w5[16:1],,,,1,,,,2,1,2,,2,
1,2,1,2,,3,4,2,5,1,6,8,7,8,7,{32}8b,1,
2,3,{16}4,,{32}1b/8b,2/7,3/6,4/5,
