&title=繚乱!ビクトリーロード (Long Ver.)
&artist=ペイトン尚未、山口立花子、伊波杏樹、原紗友里、鬼頭明里、幸村恵理、菅叶和、Liyuu、末柄里恵、高槻かなこ、大橋彩香、小泉萌香、峯田茉優、佐々木琴子
&first=0.22999999
&des=xmmcg Team
&lv_5=りょうらん!!
&inote_5=(135)
||1
{4}3qq1[4:2]/5pp7[4:2],,,,
{4}3qq2[4:2]/5pp6[4:2],,,,
{4}3qq3[4:2]/5pp5[4:2],,,,
{4}3qq4b[4:2]/5pp4b[4:2],,,,
{4}E4/E5,E3/E6,E2/E7,E1/E8,
{16}8x/2x,,,7x/3x,,,6x/4x,,5,4,6,3,7,2,8,1,
||2
{8}8x<6pp8<6pp8<6pp8[4:3],,8x/2x,,1x,2x,3x,4x,
{16}3x,7x,3x,,5,2,5,2h[16:3],,,1-5[8:1],,8,,71,,
{16}6h[4:1],,,,1,,3,3,5^8[8:1],,1^4[8:1],,5,,1,,
{8}5x-8[8:1]*v2[8:1],,5,,1w5b[8:1],28,A1f,,
{8}7x<5pp7[4:1]*<5pp7<6pp8<6b[4:2],,7x/3x,,4x,3x,2x,1x,
{16}6,2,6,,1,5,1,5h[16:3],,,8^5[8:1],,1,,82,,
{16}3h[8:1],,5x,,6h[8:1],,3,4,2h[8:1],,8,,7h[8:1],,1,,
{8}5-8[8:1],,5,,2v4[8:1]/1-5[8:1],38,12,,
||3
{8}2x-7[8:1]/6x-3[8:1],C,,,E6/B5/B4/E4,Ch[8:1],E1f/B8/B1/B2/B7/E7/E3,,
{8}3^6[8:1],6^3[8:1],,,6x-8v1-3[4:1],,3x,,
{8}4x>8b[8:1]*<8b[8:1],,4xpp4b[4:1]*qq4b[4:1],,,,,,
{8}6v4[8:1]*V84[8:1],,,,1<4[8:1],,,,
||4
{8}6x>7[4:1]/3hx[4:1],,,,2xq7^2b[4:1],6,2/5h[8:1],,
{16}4x,5,6,7,{16}8q4v7[4:1]*q4v7[4:1]/2,3,4v7[8:1],,{8}8h,,A7f/1bx,,
{16}2h[16:1],,2h[16:1],,{20}E3,B2,C1,B6,E7,{8}7hx[4:1],,5qq5pp5[2:1],,
{8}5,E1`B1`E2,3x,D3,{24}2x,1x,8x,7x,6x,5x,{48}A4f,E4,B4/B5/B3,B6`C1`B7,B1/B8/B2,E2,{8},
||5
{8}8xbq5<7qq5<8b[2:1]/2xh[8:1],,3h[8:1]/A8f,,4/B7f,3,2/D8f,{16}3x/8x,2x/7x,
{8}1xbp4>2pp4>1b[2:1]/6xh[8:1],,7h[8:1]/A1f,,8/B2f,7,6/D2f,{16}7x/2x,8x/3x,
{8}1xb-6[8:1]/4x,3,2b-5[8:1],2,7b-4[8:1],7,3bV16<8v1>3b[8:3],3,
{8}5hb[4:1],,,,{16}D7/E7,D2/E2,E6/B5,E3/B3,4xh[8:1],,,,
||6
{16}2v5[8:1]/5v8[8:1]
,3,6,,2/5,,,,{16}2,1,2,,3b/8b<5[8:1],,,,
2,,2,,3,4,3,4,5-2-5[16:3],4,5,6,5,,,,
7,3,7,,2,6,2,,3v1[8:1]/7v5[8:1],,2/6,,3/7,,,,
7,,3,,6,,2,,5-8b[8:1]/2,3/6,4/7,,3b/5b,,,,
||7
{16}2,8,1,,7b/4b,,2b/6b,,3,4,25,,6,5,7,,
{16}1s5[4:1],,1,,5,,6,,8-4[8:1],8,4,4,4b,,,,
{16}3,3,1,,1s5[4:1]b,,2,,18,,,,7,,8,,
{16}4-1[8:1],,4,,5,,6,,{32}1,8,7,6,5,4,3,2,1,8,7,6,5,4,3,2,
{16}1/5b-1[8:1],,,,5^2[8:1]/3,,,,5-1[8:1]/7,,6,,5^7[8:1]/6,,,,
{16}5-8[8:1],4,4,,5,3,3,,4-8[8:1],3,2-5[8:1],,4,,2,,
{16}8b^3[8:1],,,,8-4[8:1]/6,,,,8^5[8:1]/2,,2,,8^3[8:1]/2,,,,
{16}5-8[8:1],,,,4,,,,1w5[8:1],,37,,,,,,
||8
{16}6x,4,6,4,5x,7,5,7,6x,8,7,1v6[8:1],8xb,2xb,1xb,,
{16}3,3,5h[16:3],,7,7,,5,7,6,8,7,{4}1b,
{16}26,,3,5,4x,2,4,2,3x,1h[8:1],,2,8b,,4b/6b,,
{16}35,35,,4,6,4,8xh[8:3],,{16}E1f,E7f,E5f,E3f,{4}Chf[1024:1],
||9
{16}7-1[8:1]*-1[8:1],5,,5,7,,4,,2,1,3,8,2bv3>2[8:1]*v3>2[8:1],,,,
{16}4-8[8:1]*-8[8:1],,5-7[8:1]*-7[8:1],,4,,5,,3-5[8:1]*-5[8:1],1,,1,3,,,,
{16}47,,25,,8,71,62,,4bpp4[8:1]*qq4[8:1],,,,4b,,
{16},,5,,36,,27,,{32}1b/8b,2b/7b,3b/6b,4b/5b,,,,,,,,,{16}Cf/B1/B2/B3/B4/B5/B6/B7/B8/E1/E2/E3/E4/E5/E6/E7/E8,,,,
||10
{16}7V15[8:2],7,2,,3,,4>1[8:1],,3h[8:1],,,,4p8[8:1],4,8,,
{16}5<1[8:2],,6,,1-5[8:2],,3,,5,,4,,3<1[4:1],,2,,
{16}1q7[4:1],,2x,3x,4x,,2,,1s5[4:1],1,8,,1/2,,2,,
{16}4,4,6,8,5,4,8,1,7,3,3,5,2,1,1,4,
||11
{1}5b-8[4:6],
{1},
{16}3-8[8:1],,,,,,6h[4:2],,,,,,,,,,
{16}6q3[4:2]*<3[4:2],,,,,,,,,,,,,,3,4,
{16}1h[8:2],,7,,5,,2/8,,3/1h[8:2],,5,,3,,1,2,
{16}7bh[8:2],,6,,1,,3/4,,1/2h[8:2],,4,,8,,6,5,
{16}1b,,2,,3/8,,5,,7/1,,4,,8/2,,5/6,,
{16}2h[4:3]/8-5[8:4],,,,,,,,,,,,,,,,
||12
{16}4<8[8:1]*>8[8:1],,17,,4,,,,3/7-3[8:1],,8,1,7,,2,,
{16}6,5,6,5,1,2,8,3,1-5[8:1]*-3[16:1],3-8[16:1],1,2,1,,,,
{16}1,7,1,7,3,5,3,5,1,7h,3,5h,1,7h,3,5h,
{16}1,5h,3,1h,5,7h,3,5h,1<5[8:1]*>5[8:1],,46,,1,,,,
||13
||13
{48}1b/8b,2x/7x,3x/6x,{16}4x/5x,,,2x/7x-5[8:1],,,,2-8[8:1]*-5[8:1],,,,2,,,,
{16}6x/5x,,A7/A8/D8/E8,,4x/5x,,A8/A1/D1/E1,,3x/4x,,A2/A1/D2/E2,,3b/7b,,,,
{16}2,4,3,5,2,1,38,,7,5,6,4,7,8,61,,
{16}2,4,3,5,4,6,5,7,{24}6,8,6,8,6,8,6-2[8:1],8^5[24:2],6,8,6,8,
{16}6x-1[8:1]*-3[8:1],,,,6,,,,3^6[8:1],,2,,1-4[8:1],,8,,
{16}5w1[8:1],,,,5,,,,17,,28,,1^4[8:1]/3-7[8:1],,2,,
{16}3x-8[8:1]*-6[8:1],,,,3,,,,6^3[8:1],,7,,8-5[8:1],,1,,
{16}2-7[8:1],,,,3-6[8:1],,,,1-4[8:1],,,,E8f,,,,
||14
{16}6V48[16:3]/4,,7,1,6,,,,{48}E2/7xh[8:3],E3,A3,,,,E1,B1,B2,,,,E8,B7,B6,,,,,,,,,,
{16}1,,5,3,1,2,4hx[8:5],,{48}E2,B2,B3,,,,E1,B8,B7,,,,A8,E8,A7,,,,,,,,,,
{16}Ch[8:4],,,,,,,,3x,4x,5x,6x,7xp2>5[8:4]/2xq7<4[8:4],,,,
{16},,,,,,,,E5f,,,,,,,,
||15
{32}4x,3x,2x,1x,8x,7x,,,{16}5,5,6,6,{8}A7f,A8f,A1f,A2f,
{8}1xs5b[8:1],,,,3xV58[16:3]/6xh[4:1],,,,
{16}1w5[8:1],1,1,1,,,,,5xpp5[16:3]*qq5[16:3],,,,,,,,
{8}6xp6b[16:5],2xp2b[16:3],,,,{16},1xh[16:3],{16},,{12},{24}B5f,
{8}2xqq2qq2qq2qq2qq2qq2qq2qq2qq2qq2qq2b[4:11],,4b/E2f,,5b/E2f,5,6b/E2f,6,
{8}E2f/5b,5,E2f/6b,6,E2f/5b,5,E2f/6b,6,
{8}E2f/4b,,E2f/5b,,E2f/6b,6,E2f/5b,5,
{1}5-8[2:1],
||16
{64}1b/8b,2b/7b,3b/6b,4b/5b,,,,,{8},74,6,{16}2,5,4,6,1,,1,,
{8}35,7,28,6,E6f`2xq3>2[8:2],,E6f,,
{16}7,,7,,6,2,5,,{48}E1,A1,D2,A2,E3,B3,B4,E5,,,,,,E1,A8,D8,A7,E7,B6,B5,E5,,,,
{16}2,4,3,6,4,5h[16:1],2,,{32}2x/6,3x,4x,,2x/7,3x,4x,,2x/8,3x,4x,,,,,,
||17
{16}3,5,
{8}1-4[8:1],3,1<6[8:1],7,1,2,5h[8:1],
{16}3p7[8:1],4,,4,3,,5h[8:1],,
{32}6wx2[8:1],5x,4x,3x,2x,1x,8x,7x,6bx/Cf,,,,,,,,
{16}
7,,1,1,7,5,6,4,5,3,4,2,8,1,7,5,
6h[8:1],,4V28[16:3],,3,5,4,,
{48}A4f,E5/D5,A5/B5,D6/E6,A6/B6,D7/E7,A7,,,,,,
{4}1bx,
||18
||18
{48}6b/5b,E6f,,{16},,,{48}3b/2b,E3f,,{16},,,{48}7b/8bw4[8:1],E8f,,{16},,,Cf/B3/B5,,,,
{48}D1,A1,D2,A2,D3,,{16},,{48}D1,A1,D2,A2,D3,,{16},,{48}D1,A1,D2,A2,D3,,{16},,{48}D1,A1,D2,A2,D3,,{16},,
{16}7,5,6,5,8h[8:1],,7,,2,4,3,4,1h[8:1],,2,,
{16}1,1,4,3,8,8,5,6,{24}1-4[8:1],4,1,4,1,4,{32}E2f,B2f,B3f,E4f,{16},,
||19
{1}1>8[4:3],
{1}2>7[4:3],
{1}3<6[4:3],
{1}2>7[4:2],
{16}3h[4:1],,,,4,,,,6h[4:1],,,,5,,,,
{16}3h[4:1],,,,B1/B2,,,,6h[4:1],,,,B7/B8,,,,
{16}4h[4:1]/5h[4:1],,,,,,,,4-1[8:1]/5-8[8:1],,,,45,,,,
{16}6x-3[8:1]/4x-8[8:1],,,,6xb/4xb,,,,{32}1x,2x,3x,4x,5x,6x,7x,8x,{16}1b/5b,,,,
||20
{16}4-1[8:1],,8,8,4-7[8:1],7,6,5,4-8-4[4:1],1,2,3,4/5,,,,
{16}5-8[8:1],,1,1,5-2[8:1],2,3,4,5-1-5[4:1],8,7,6,4/5,,,,
{16}4-1[8:1],,8,8,4-7[8:1],7,6,5,4-8-4[4:1],1,2,3,4/5-1b[8:1],,,,
{4}5b>2b[8:1]*<8b[8:1],5b,{16}1bw5b[8:1],2/8,3/7,,{4}1b,
||
!
!
!
!
!
{16}8-5[8:1],,4,4,4/8-3[8:1],3,2,1,4/8-4-8[4:1],5,6,7,8/4,,1,1,
{16}1-4[8:1],,5,5,5/1-6[8:1],6,7,8,5/1-5-1[4:1],4,3,2,5/1,,8,8,
{16}8,2,8,2,7,3,7,3,6,4,6,4,5-1b[8:1],5,5,5,
{4}5b>2b[8:1]*<8b[8:1],5b,{16}1bw5b[8:1],2/8,3/7,,{4}1b,
||21
{1}3>6[4:13]/6,
{1},
{1}5h[2:1],
{1}4h[2:1],
{8}1pp4[4:2]/8,,7,,6,,5,5,
{8}6qq1[4:2]/4,,4,,3,,2,,
{8}4x/5xh[8:1],4x,6x/3xh[8:1],6x,2x/7xh[8:1],2x,8x/1xh[8:1],8x,
{16}3,4,2,,6,5,7,,1-5[8:1],8,2,7,1bx,,6x,6x,
||22
{16}4-8[8:1],,,5,4,,6,,7-4[8:1],,,8,7,,2,,
{16}3-8[8:1],,,4,3,,5qq4[8:1]*pp6[8:1],,5x,,,,,,3x,3x,
{16}5-1[8:1],,,4,5,,3,,2-5[8:1],,,1,2,,7,,
{16}6-1[8:1],,,5,6,,4-8[8:1]*-2[8:1],,4x,,,,,,7x,7x,
{16}4q8[8:1],,,3,4,,2,,8^3[8:1],,,7,8,,4,,
{16}4p8[8:1],,,5,4,,5v2[8:1]*^8[8:1],,5x,,,,,,3x,3x,
{16}5-1[8:1],,,6,5,,8,,4-8[8:1],,,3,4,,1,,
{16}2,2,4,4,5,5,7,7,{32}E1,E2,E3,E4,E5,E6,E7,E8,A1,A2,A3,A4,A5,A6,A7,A8,
||23
{16}1x/5x^2[8:1],,,6,5-1b[8:1],,6,,1,,,,3/7^1[8:1],,,,
{16}5^3b[8:1]/7,,,,6^8[8:1]/5v8[8:1],,,,6p2b[8:1]/5^2b[8:1],,,,65,,,,
{16}4^7[8:1]/7,,,3,4-8b[8:1],,3,,8,,,,6/2^8[8:1],,,,
{16}4^6b[8:1]/2,,,,4^1[8:1]/3-8[8:1],,,,3/4^7b[8:1],,,,8h[4:2]/4,,,,
{16}7bx,,,,5x^2[8:1],,,,6xv1b[8:1],,,,8xh[4:2],,,,
{16}1bx,,,,3xp6[4:1],,,,6x<3b[4:1],,,,5x,,,,
{16}5b-8[8:1],,4,,3,,2,,4-1[8:1]*-1[8:1]/1,,1,,2,,3,,
{16}5-8b[8:1],4,6,,4-1b[8:1],3,2,,4,5,6,7,8-5b[8:1],,,,
{16}8bx/1bx,,,,,,,,,,,,,,,,
{24}E6f,B4f,E7f,D4f,E5f,D3f,A6f,B5f,A5f,A4f,D7f,B3f,B6f,E4f,B7f,A3f,
{24}E6f,B4f,E7f,D4f,E5f,D3f,A6f,B5f,A5f,A4f,D7f,B3f,B6f,E4f,B7f,A3f,
{24}E6f,B4f,E7f,D4f,E5f,D3f,A6f,B5f,A5f,A4f,D7f,B3f,B6f,E4f,B7f,A3f,Cf,
