&title=致那暖明黄金
&artist=Koimoon feat. Risa Yuzuki
&first=0
&des=ナツナツフユフユ
&lv_5=14
&inote_5=(85)
{1},
{4}3bh[4:1],5<3[2:1],{8}E4,,E3,E2,E1h[1:1],,,,
{4}E7,E6,5hx[2:1],,6>8[2:1],5-2-7-4[2:1]/6,5,,Ch[4:1],E6,
{8}8V24[4:1],8,5,6,7^5v8[4:1],7,5,4,3h[16:3],,4qq5[4:1]/7,
{8}4,5>7[4:1],,6,5,
{8}4-6-8-2[4:1],4,2v4[8:1],2,3h[8:1],,E4,E5,E6,E2h[4:1],7,7/B2,
{16}5,46,3,24,{32}1,8,7,6,5,4,3,2,
(170)
{16}1s5[8:1],,,,1b/8b,,,6,6-8[8:1]*-2[8:1],,,,6,,,,1,,5,,3,4,3,2,
{8}1-6[8:1],,1/3h[8:1],,
{12}3,7,7,4,8,8,5,1,1,6,4,5,3,7,7,2,6,6,1,5,5,2,8,1,
{8}6-1-5-7[8:3],,E3,B3,,C,,B7,E7h[2:1],,,,
{8}4x,,{16}4,5,6,7,{8}4z8[4:1]/8,,4x,6hx[8:1],,5hx[8:1],,2h[8:3]/4h[4:1],,,
{12}E3,E2,E1,E5,E4,E3,E8,E7,E6,
{8}5hx[2:1]/1x<2[1:1],,,,,,E7,E8,,,,,1,,24,,35,,,
{8}4-2-8-6[8:7]/6-3-1-7-5[1:1],,,,,
{1},
{4}5V36[2:1]/4h[2:1],,,2,2V83[2:1],,7,8,
{2}1V37[2:1],4,
{8}56,,56,,67,78,18,12,
{8}3-5[8:1],2,3,,7-1[8:1],,7,,5,5,4^7[8:1],,4^1[8:1],,4,,
{8}E6h[8:3]/B5h[4:1]/B6h[2:1],,3,,3,4,5-8[8:1],,5-2[8:1],,5,,5,6,7,8,
{16}4,,6,5,6,,4,5,4,,5,,2h[4:1],,,,
{16}1,,3,4,3,,5,4,5,,4,,6,,5,,8,,2,1,2,,3,4,2,,7,8,7,,6,5,
{8}7-5-1[4:1],,1V74[4:1],2h[4:1],,,2,,
{8}4^7[8:1],4,2,3,4V62[4:1],,4,8,
{8}1^6[8:1],1,3,4,5^8[8:1],,4V26[4:1]/5,,
{8}4,,1>7[4:1],,15,,E4,E3,
{8}1-5[8:1],,1/8^3[8:1],,68,6,7,8,
{8}5^2[8:1],5,7,6,5V37[4:1],,5,1,
{8}8^3[8:1],8,6,5,4^1[8:1],,4/5V73[4:1],,
{8}5,,8<2[4:1],,48,,E6,E7,
{8}8-4[8:1],,1-5[8:1]/8,,1/2^7[8:1],,26,,
{16}5,,4,,6,6,8,,3,3,1,,2-5[8:1]/4-7[8:1],,,,24,,,,18,,,,6,,,6,4<3[8:3]b,,,,
{16}4b,,,,5,,,,46,,,4,7<2[4:1],,,,2>7[4:1],,,,8,,,,1,,,,1,,,,
{8}1h[2:1],,3,4,5,26,37,,
{8}7h[2:1],,5,4,3,26,15,,
{4}8^3[4:1],3^6[4:1],6^1[4:1],1x>5[4:1],5x<1[4:1],,,
{8}E3,B3,
{32}6v5-3[1:1],,,,,,,,,,,,,,,,,,,,,,,,,,,,,,,,,,,,,,,,,,,1-6-2-4[1:1],,,,,,,,,,,,,,,,,,,,,,,,,,,,,,,,,,,,,,,,,,,8-2v4-6[1:1],,,,,,,,,,,,,,,,,,,,,,,,,,,,,,,,,,,,,,,,,,,8-3-6-1[1:1],,,,,,,,,,,,,,,,,,,,,,,,,,,,,,,,,,,,,,,,,,,,,,,,,,7-4^5-2[1:1],,,,,,,,,,,,,,,,,,,,,E5,,,,,,,C,,,,,,,,,,,,,,,1-6-3-8[2:1],,,,,,,,,,,,,,,,,,,,,,,,,,,,,,,,,,,
(200)
{8}45,,5,,3,,
(170)
{8}1/2-5[8:1],8,2/7-4[8:1],,1-6[8:1]/7,,
(200)
{8}1^4[8:1],5,1,,
{4}7bhx[2:1],5,4,
(170)
{8}3,,2bh[2:1],,4,,5,,
{16}6,5,6,5,7x-5[8:1],,,2,7-1[8:1],,,3,7,,,,
{16}5-7[8:1]*-3[8:1],,,,5>1[8:1],,,,5/B8,B7,B6,B5,4xv7[8:1],,,,14,,,,
{12}2,5,5,8,3,3,1,1,7,5,5,6,
{4}6-1[8:1]*-2[8:1],6,7-3[8:1]/8-4[8:1],78,
{16}2-4[16:1],1,2,1,2,,
{16}6-8[16:1],5,6,5,6,,
{16}3-1[16:1],4,3,4,3,,
{16}7-5[16:1],8,7,8,7,,
{16}1,2,3,4,5,6,7,8,
{4}1-5^4-2[4:1],1,{8}6,7,8,,
{4}8-4^5-7[4:1],8,{8}1,2,3,5,
{4}4>6[2:1]b/6bh[4:1],,5-2-7-4[2:1],5,4^5-1[4:1],2>6[4:1],2,1,
{4}6-3[8:1]/1-6[8:1],16,Ch[4:1]/1-5[8:1],1,7<2[4:1],E2h[2:1],A1h[4:1],8,
{12}7,6,5,3,2,1,6-4[8:1]/8-4[8:1],,,68,,,
{12}3,2,1,7,6,5,4-8[8:1]/2-8[8:1],,,24,,,
{8}7-5[8:1],7,1-3[8:1],1,8-6[8:1],8,2-4[8:1],2,
{4}8-5[8:1]*-3[8:1],8,1-4[8:1]*-6[8:1],1,
{8}2b-5[8:1],2,6,6,{16}7,8,7,,{8}4-1[8:1],6,
{8}4/7b-4[8:1],7,3,3,{16}2,1,2,,{8}5,3,
{8}4^7[8:1],4,1^4[8:1],1,8,8h[8:1],6,6h[8:1],4,4h[8:1],3,6,1s5[8:1]/8z4[8:1],27,18,,
{8}78,6,12,3,56,7,34,2,56,8,34,1,
{8}7-3[8:1],7,1-5[8:1]/7,1,18,7h[8:1],8h[8:1],1h[8:1],2h[8:1],3h[8:1],4h[8:1],5h[8:1],
{16}6,7,8,1,2,3,4,5,6,7,8,1,2w6[1:3]b/4,,,,
{1}2b,,,,
{8}B3h[8:3],B4,B5,B6,,,,,E7h[2:1],E6,E5,E4,E3,,C,,
{16}1,8,7,6,5,4,3,2,1,,,,,,,,
{16}A8/D8,A1/D1,A2/D2,A3/D3,A4/D4,A5/D5,A6/D6,A7/D7,A8/D8,,,,,,,,
{8}3,,,3,5,,,,7,,,7,1,,1,,5,,,5,2,,2,,4h[1:1],,,3,3,,5,,5h[1:1],,,6,6,,7,,7,,,,
{8}8h[1:1],,,,1,,,2,2,,3,,4,,,5,,,
(130)
{8}5<4[1:2],,,,
{1},,
(170)
{8}6,6,4,4,5-8[8:1],3,5,,
{8}2,2,8,8,1-4[8:1],7,1,,
{8}56,56,47,47,1-5[8:1]/8-6[8:1],23,18,,
{8}34,34,25,25,1-3[8:1]b/8-4[8:1]b,67,18,,
(180)
{8}E7h[8:3],E6h[4:1],2,2,4-7[8:1],3,4,,
{8}E3h[8:3],E4h[4:1],7,7,5-2[8:1],6,5,,
{8}57,57,48,48,1-5[8:1]/2-6[8:1],38,12,,
{8}24,24,15,15,7-3[8:1]b/8-4[8:1]b,16,78,,
(200)
{8}B6h[8:1]/1,B5/1,B5h[8:1]/2,B6/2,1-5[8:1],2,1,,
{8}B3h[8:1]/8,B4/8,B4h[8:1]/7,B3/7,8-4[8:1],7,8,,
{8}3,3,4,4,2-4[8:1]/5-1[8:1],36,25,,
{8}6,6,5,5,4-8[8:1]b/7-5[8:1]b,36,47,,
(210)
{8}1/B4h[8:1],1,2/Ch[8:1],2,3x-1[8:1]/5x-1[8:1],4,35,,
{8}B5h[8:1]/8,8,Ch[8:1]/7,7,4x-8[8:1]/6x-8[8:1],5,46,,
{8}E2h[8:1]/6,6,E8h[8:1]/3,3,B3h[8:1]/5,5,B6h[8:1]/4,4,
{8}26,26,37,48,1-6[8:1]b/5-2[8:1]b,15,15,
{1},,,
E
