&title=C & B
&artist=PSYQUI (feat. Such)
&first=0
&des=DELTAX (feat. Jack)
&wholebpm=170
&lv_5=13+
&inote_5=(170){1},
{4},,,,
{8}6h[4:3]/1b,,,,,,4,2h[4:3]/5,,,,,,4>1[4:2],,7h[8:7],,,,,,,4,3h[4:1]/6,,4qq4[8:3],,8h[4:1],,,,,
1h[4:1]/7h[4:1],,,3h[4:1]/4h[4:1],,,2h[4:1]/8h[4:1],,,5h[4:1]/6h[4:1],,,2q4[4:2],,5,,7,,8h[4:1],,5h[4:1],,4,4h[4:1],,2>8[8:3],,5h[8:5],,,,,
1b,,28,,3,,46,4b/6b,,5,,34,,2,,3b/5b,,4,,6,6,,57,5b/7b,,8<2[8:3],,1h[8:2],,,,,
5h[4:1],,,4h[4:1]/6h[4:1],,,3h[4:1]/5h[4:1],,,2h[4:1]/6h[4:1],,,3qq5[4:2],,5,,7h[4:2],,,,,3h[4:1],4,5<8[4:1],,8>3[4:1],,3<6[4:1],,Chf[8:3],,,
6x,,6,,6x/2q5[4:4],,6,,7,,7,,8,,8,,7pp4[4:4],,2,,2,,2,,3,,3,,4,,4,,
3,3,53,3,13,3,35,3,68,6,46,6,68,6,46,6,
{16}2,1,3,8,4,7,5,6,{32}4,3,2,1,8,7,6,5,4,3,2,1,8,7,6,5,
{16}4bpp3[4:1]/8bpp7b[4:1],,,,,,,,,,,,Cf/A7/B7/B3/A3,,,,
1b,,1b,,26,,3,4,3-5[8:1],,7-3[8:1],,3,,7,,
2,1,2,,6-1[8:1],,6,,2-5[8:1],,3,,7,,7,,
6,,6,,2-6[8:1],4,3,,8-2[8:1],,8,,4-6[8:1],,4,,
7x,7x,8x,,2x/4x,,1,,5/7p5[4:1],,8,,1b,,,,
2h[256:1],,2h[256:1],,6-4[8:1],5,7,,2-6[8:1],,,2,8,,8,,7,5,6,,2-4[8:1]/5,,1,,2/7-5[8:1],,8,,7-3[8:1]/2,,1,,2h[256:1],,2h[256:1],,4h[256:1]/6h[256:1],,7h[256:1],5h[256:1],6<1[8:1],5h[256:1],7h[256:1],,3<6[8:1],,3h[256:1],,7-3[8:1],,7h[256:1],,1w5b[8:1],,1h[256:1],,1b,,,,Cf/E7/E3,,,,
3b/7b,,,,47,,8,,47,,8,,47,,1,,47,,2,,47,,3,,4>1[8:1]/7<4[8:1],,3,,47,,,,
3,4,3,,52,,1,,52,,1,,52,,8,,52,,7,,52,,6,,5<8[8:1]/2>5[8:1],,6,,52,,,,
6,5,6,,4,,35,,2h[16:3],,,4,2,,15,,3,4,3,,5,,64,,5,7h[16:2],,5,7,,84,,
3,4,3,,25,,3,5,4,6h[16:3],,5,5,,47,,
1,8,1,8,2,7,2,7,3,3x,6,6x,4,4x,5,5x,
3b>5[8:10],,,,,,,,,,,,6x,,6hx[4:4],,,,,,,,,,,,,,,,4h[4:4],,E5,E6,E7,E8,E1,E2,E3,E4,E5,,,,5x<4[4:2],,5h[8:7],,,,,,,,,,,,,,,,,,
2-6[8:1],,,,2x,,7-4[8:1],,,,7x,,3-8[8:1],,,,3x,,6-2[8:1],,,,6,,4h[4:2],,,,6x,,,,8hx[4:3],,E5,E4,E3,E2,E1,E8,E7,E6,E5,,3x,,2-6[8:1],,,,2/7-3[8:1],,,,7/1V35[8:1]*V75[8:1],,,,1b,,,,,,A1/B1/Cf/B5/A5,,,,,,,,,,,,,,,,,,,,,,,,,,,,,,,,
3<6[4:4],,,,,,,,,,,,,,,,7h[4:12],,,,,,,,,,,,,,,,A6,,,,,,,,A5,,,,,,,,A4,,,,,,,,A3,,,,,,,,
2h[4:3],,,,4,,,,5,,,,6,,6pp5[4:3],,,,4,,,,2h[8:3],,,,,,,,,,
4h[4:16],,,,5x,,,,,,,,E7,,,,,,,,E1,,,,,,,,E3,,,,,,,,E5,,,,,,,,E2,,,,,,,,E8,,,,,,,,C,,,,
6h[4:4],,,,E7,,,,E5,,,,E3,,,,3h[4:4],,,,E4,,,,E5,,,,E6,,,,
6>7[4:2],,,,,,,,,,,,3,,3h[4:1],,,,4h[4:1],,,,5h[4:1],,,,Chf[8:3],,,,,,
3hx[16:3],,,,2h[8:1]/4h[8:1],,,,5h[16:3],,,,4h[8:1]/6h[8:1],,,,7h[16:3],,,,1h[8:1]/5h[8:1],,,,2,,4,,5,,7,,
6h[16:3],,,,7h[8:1]/5h[8:1],,,,4h[16:3],,,,5h[8:1]/3h[8:1],,,,2h[16:3],,,,8h[8:1]/4h[8:1],,,,6,,5,,4,,3,,
2b,,2,,2/8h[8:1],,2,,2/4h[8:1],,2,,2/8h[8:1],,2,,6b,,6,,4h[8:1]/6,,6,,6/8h[8:1],,6,,4h[8:1]/6,,6,,2x,6x,3,7,4,8,5,1,
{32}4b,3,2,1,8,7,6,5,4b,3,2,1,8,7,6,5,
{16}4bq2b[4:1]/8bq6b[4:1],,,,
,,,,,,,,
{24}2,3,4,5,6,7,
{16}1b-5[8:1]/8b,,,,7-4[8:1]/1,,,,3-7[8:1]/7,,,,36,,5-3[8:1],,,,5/1-5[8:1],,,,7-1[8:1]/1,,,,5x-1[8:1]/7,,,,65,,,,7<4[8:1],,8,,7,,2>5[8:1],,1,,2,,8-5[8:1]*-6[8:1],,,,8b-3[8:1]*-2[8:1],
,,,8b,,,,,,
{24}7,6,5,2,3,4,
{16}1b/5b-1[8:1],,,,65,,,,8>3[8:1],,7p5[8:3],,8,,7,,,,5>1[4:1],,,,1<5[4:1],,,,4,,,,3,,,,2-6[8:1],,4,,2,,7-3[8:1],,5,,7,,1>4[8:1],,,,1b<6[8:1]/5,,,,1b/5,,,,,,
1,8,1,8,2-5[8:1]/7-4[8:1],,,,2b/7b,,,,1-5[8:1],,6<4[4:1],,1,,6,,,,5w1[8:1],,,,5,,,,37,,,,2,,,,7-3[8:1],,68,,7,,2-6[8:1],,13,,2,,8-4[8:1],,,,8b>3[8:1]*<5[8:1],,,,8b,,,,,,
{24}2,3,4,7,6,5,
{16}
1b,,6,5,6,,47,,8b,,3,4,3,,25,,6,,57,,3,,24,,7,,68,,2,,13,,
2b,4,2,4,2,5,2,5,2,6,2,7,2,8,2,1,
2b,,6,5b/7b,,3,2b/4b,,
{32}1-5b[8:1],2,3,4,5,6,7,8,
{16}1b,,,,Cf/B2/B8/B6/B4,,,,,,,,,,,,,,,,
{4}1hx[4:4],,,,3x<6[4:3],,,,7hx[4:4],,,,
{8}E3,,,,E4,,,E5,,,,E6,,,,E7,,,,,,,,1s5[8:5],,,,,,,,,3pp3[4:7]/7pp7[4:7],,,,,,,,,,,,,,,,,,,,,,,,E
