&title=stray whisper taker (Camellia Remix)
&artist=綾倉盟
&first=0
&des=Dororo
&lv_5=14
&inote_5=(140)
{16}
,,,,,,,,,,,,,,,,
,,,,,,,,,,,,,,,,
3p3[2:3],,,,,,,,4h[128:1],,,,,,,,
5h[128:1],,,,,,,,6h[128:1],,,,,,,,
3p2[2:3],,,,,,,,4h[64:1],,,,,,,,
5h[64:1],,,,,,,,6h[64:1],,,,,,,,
3p1[2:3],,,,,,,,4h[32:1],,,,,,,,
5h[32:1],,,,,,,,6h[32:1],,,,,,,,
3p8[2:3],,,,,,,,4h[16:1],,,,,,,,
5h[16:1],,,,,,,,6-3[4:1],,,,,,,,
2h[2:1],,,,,,,,4h[2:1],,,,,,,,
5h[2:1],,,,,,,,7h[2:1],,,,,,,,
1^4[4:1],,,,,,,,6^1[4:1],,,,,,,,
3^6[4:1],,,,,,,,8^3[4:1],,,,,,,,
7h[2:1],,,,,,,,5h[2:1],,,,,,,,
4h[2:1],,,,,,,,2h[2:1],,,,,,,,
6qq6[2:1],,,,,,,,2qq2[2:1],,,,,,,,
6^3[4:1],,,,,,,,1,,1,,1,,1,,
1pp3[4:1],,,,2,,,,6pp8[4:1],,,,7,,,,
3pp5[4:1],,,,4,,,,8pp2[4:1],,,,1,,,,
5p7[4:1],,,,6,,,,3q1[4:1],,,,2,,,,
6p8[4:1],,,,7,,,,4q2[4:1],,,,3,,,,
1,,1,,1,,1,,24,,35,,46,,57,,
8,,8,,8,,8,,75,,64,,53,,42,,
1,1,6,6,3,3,8,8,4,4,7,7,2qq4[2:1],2,5,5,
,,,,,,,,,,{32}5,4,5,,{16}3,5,4,6,
3v8[8:1],,,,5h[4:1],,,,7,6,8,7,1,8,2,1,
3-6[8:1],,7v8[8:1]/2,,,,,,4,4h[8:1],,8h[8:1],,2h[8:1],,6,
6-4[8:1],,,,3<7[8:1],,,,5pp6[16:3]*qq4[16:3],,,,,,,,
,,2,1,3h[16:3],8h[8:1],,,38,,6,65,,3,24,,
6V82[8:1],,,,4h[4:1],,,,3,4,2,3,1,2,8,1,
{24}7,6,5,1,2,3,7,6,5,1,2,3,{16}7,7h[8:1],,5h[8:1],,3h[8:1],,1,
1v6[8:1]*v7[8:1],,,,1pp5[8:3],,,,4b,,,6b,,,8b,,
1^6[8:1],,6v3[8:1]/4h[4:1],,,,,,4,,1,28,,6,57,,
{32}8-4[8:1],1,2,3,4,5,6,7,{16}2h[4:1],,,,3,,2,1,2,1,2,1,
2v4[8:1],,5^8[8:1]/3,,,,,,4,4h[8:1],,8h[8:1],,2h[8:1],,6,
6-2[8:1],,,,3>5[16:3],,,,4q3[16:3]*p5[16:3],,,,,,,,
,,7,8,6h[16:3],1h[8:1],,,61,,3,34,,6,75,,
{32}8h[8:1]/3,4,5,,,,8h[8:1]/3,4,5,,,,8/3>5[4:1],,,,{16}8^5[8:1]*v5[8:1],,,,,,,,
3/4-7[8:1],,2q6[8:1]/5,,1,,,,8,8h[8:1],,6h[8:1],,4h[8:1],,2,
2^8[8:1],,,,5v6[8:1]/2,,6pp3[8:3],,2b,,,4b,,,2b,,
1h[4:1],,,,{32},28,37,46,{16}5,,46,5,4,35,4,5,46,,
3-6[16:1],,,7-3[16:1],,,4,,4b>5[4:1],,,,5,,,,
4p8[8:1]*v7[8:1],,,,4,,,,1-3[8:1],8,,8,1-5[8:1],8,,8,
1>7[16:3],,,,8-5[8:1]/1,,,,8pp3[8:3],,,,4,,5,,
6^3[8:1],,,,67,,,8,8h[16:5],,6,6h[8:1],,,68,,
{24}57,4,3,28,7,6,5h[4:1]/4,3,2,1,8,7,{16}6bpp5[4:1],,,,5,,,,
4-2[8:1]*v1[8:1],,,,4,,,,8v3[8:1],1,,1,8-5[8:1],1,,1,
8>4[4:1],,,,4V62[4:1]/8,,,,5b,,,7b,,,1b/2,,
3h[4:1]/8z4[16:3],,,,,,3,,26,,,48,,2-7[16:1]/3-6[16:1],23,,
2qq2[4:1]/3V52[4:1],,,,,,,,,,,,{32}2bq7[8:1],3,4,5,6q3[8:1],7,8,1,
{16},,,,,,,18,18,2h[8:1]/7,,5,3,7,5,8,
8<2[16:3],,,,1v4[8:1]/8,,,,1V75[8:1],,,,5,,4,,
{32}3p2[4:1],2,1,8,7,6,5,4,{16},,,1,1h[16:5],,4,4h[8:1],,,14,,
{32}2/8b,7,6,5,{16},{48}7/8b,1,2,3,4,,{16},6b,,6bp2[8:1]*-3[8:1]/5,,47,,6V47[16:3],,,,
1h[4:1],,,,,,,28,28,7h[8:1]/3,,5,6,3,4,2,
2h[4:1],,7,,{24}7,8,1,2,3,4,{16}1h[8:1]/5h[8:1],,,2h[8:1]/6h[8:1],,,37,,
4/8-4[16:1],,3,,2-6[16:1],,5,,7,7h[8:1],,5,6,3,4,,
2/5<4[4:3],,,,,,,,,,,,,,,,
6<3[4:3],,,,,,,,,,,,,,,,
7>2[4:3],,,,,,,,,,,,,,,,
4h[1:2],,,,,,,,,,,,,,,,
8h[1:1],,,,,,,,,,,,,,,,
,,,,,,,,,,,,,,,,
4h[8:7]/5h[8:7],,,,,,,,,,,,,,,,
36,,1,,36,,8,,36,,{32}4,5,4,,{16}6,4,5,3,
{32}7b,8,1,2,3,4,5,6,7-3[8:1]/3h[4:1],8,1,2,,4,5,6,{16},,,,1pp1[4:1]/4-7[8:1],,2,,
1/4,,,,{24}8,7,6,1,2,3,{16}5,4/6h[8:1],,8,8,4,4,2,
2^7[8:1],,8,,8h[4:1],,,,{24}6v3[8:1],5,4,3q7[8:1]/1,8,7,{16}62,,,,
{32}1qq2[4:1],2,3,4,5,6,7,8,{16},,,5,5h[16:5],,1,1h[8:1],,,{24}15,26,37,
{32}4/8b,1,2,3,4,5,1b,8,7,6,5,4,1b,8,7,6,{16}3bq7[8:1]*-8[8:1],,24,,3V51[16:3],,,,
36,,,,{32}8,7,6,5,8,1,2,3,{16}5,4h[8:1]/6,,7,7,3,3,5,
5h[4:1],,2,,{24}2,3,4,5,6,7,{16}8h[8:1]/5h[8:1],,,2h[8:1]/3h[8:1],,,34,,
5/1-5[16:1],,6,,7-3[16:1],,4,,2,2h[8:1],,4,{24}3,5,1,6,4,8,
{16}
7bqq3[2:14]/3,,,,,,,,3^5[4:1],,,,,,,,
,,,,,,,,2^4[4:1],,,,,,,,
,,,,,,,,1^3[4:1],,,,,,,,
,,,,,,,,8^2[4:1],,,,,,,,
,,,,,,,,7^1[4:1],,,,,,,,
,,,,,,,,6^8[4:1],,,,,,,,
,,,,,,,,5^7[4:1],,,,,,,,
,,,,,,,,4^6[4:1],,,,,,,,
4h[8:47],,,,,,,,2,,,,,,,,
,,,,,,,,1,,,,,,,,
,,,,,,,,8,,,,,,,,
,,,,,,,,7,,,,,,,,
5h[8:15],,,,,,,,,,,,,,,,
,,,,,,,,,,,,,,,,
4z8[2:3]/5-1[8:1],,,,,,,,,,,,,,,,
,,,,,,,,,,,,1h[256:1],,,,
{1},
E
&inote_7=(140)
{16}
,,,,,,,,,,,,,,,,
,,,,,,,,,,,,,,,,
3q4[35#16:3],,,,,,,,2x,,,,,,,,
3q5[35#16:3],,,,,,,,1x,,,,,,,,
3q6[35#16:3],,,,,,,,8x,,,,,,,,
3,,,,,,,,7x,,,,,,,,
6pp5[35#16:3],,,,,,,,A4,,,,,,,,
6pp4[35#16:3],,,,,,,,A3,,,,,,,,
6pp3[35#16:3],,,,,,,,A2,,,,,,,,
6,,,,,,,,A1,,,,,,,,
4-1[35#16:1],,,,,,,,2h[1:1],,,,,,,,
4-8[35#16:1],,,,,,,,6h[1:1],,,,,,,,
4-7[35#16:1],,,,,,,,2h[1:1],,,,,,,,
4-8[35#16:1],,,,,,,,6h[1:1],,,,,,,,
4-1[35#16:1],,,,,,,,2h[1:1],,,,,,,,
4-8[35#16:1],,,,,,,,6h[1:1],,,,,,,,
4-7[35#16:1],,,,,,,,2h[1:1],,,,,,,,
4,,,,,,,,7,,1x,,1x,,1x,,
1^4[35#16:1],,,,B2/B3,,,,1-5[35#16:1],,,,A5,,,,
1^6[35#16:1],,,,B7/B8,,,,1^4[35#16:1],,,,B2/B3,,,,
1-5[35#16:1],,,,A5,,,,1^6[35#16:1],,,,B7/B8,,,,
1,,,,B2/B3,,,,1,,,,A5,,,,
4/D1/E1,,3/D8/E8,,2/D7/E7,,1/D6/E6,,8/D5/E5,,7/D4/E4,,6/D3/E3,,5/D2/E2,,
4/D1/E1,,3/D8/E8,,2/D7/E7,,1/D6/E6,,8/D5/E5,,7/D4/E4,,6/D3/E3,,5/D2/E2,,
4-6-8z4-7[35#16:3]*-2-8s4-1[35#16:3],4,4,4,4,4,4,4,4,4,4,4,4,4,4,4,
,,,,,,,,,,,,A8f/E8/E1,,,,
2v1-7^2[35#32:3]/1h[4:1],,,,5h[4:1],,,,6,5,4,3,6,5,4,3,
6h[8:3],,,,,,,6,57,48,,3,4,3,,3,
7v8-2[35#16:1],,,,2v1-7b[35#16:1]/8h[4:1],,,,{24}5,6,5,6,5,6,5,6,5,{16}6x,,
,,B3`A3,,,B4`A4,,,B5`A5,,,B6`A6,,,18,,
2-8v1-7-2[35#32:3]/7h[4:1],,,,3h[4:1],,,,6h[24:1],5h[24:1],4h[24:1],5h[24:1],3h[24:1],4h[24:1],5h[24:1],4h[24:1],
3h[8:3],,,,,,,3,24,15,,6,5,6,,6,
2-6-1[35#16:1],,7-3-8b[35#16:1],,18,,,,65,,,45,,,34,,
,,,,,,4,,4h[8:3],,,A1/D2/A2/E2,,,A7/D7/A6/E7,,
{32}8v7^2v1[35#32:3],7x/1x,6x/2x,5x/3x,{16},,E1f,,,,3,4,5,6,3,4,5,6,
3h[8:3],,,,,,,3,42,51,,6,5,6,,6,
7v5^6-8[35#16:1],,,,8-2^3v1b[35#16:1]/2h[4:1],,,,{24}5,3,5,3,5,3,5,3,5,{16}3x,,
,,4h[8:1],,,4h[8:1],,,E5/E4/B4f,,,A7/A6/E7f,,,E1/E2/B1f,,
{48}7-3-8-2^1[35#32:3],6x,5x,{16},,{48}1,2x,3x,{16},,8,,{32}8b/4bh[8:3],D1,A1,D2,A2,D3,A3,D4,A4,D5,A5,D6,A6,D7,,,
{16}7x/4h[8:3],,,,,,,4,35,26,,8,1,8,,8,
3v5^4v6[35#32:3],,,,78,,12,,7b/5b,,,1b/8b,,,2b/4b,,
6x,,,,{24}A7,A8,A1,{16}A2,,5,4,3,6,5,4,{32}6,5,4,3,
{16}
6<2[35#16:1]/E3f/B2/B3,,,Cf/E1/E5,,,E7f/B6/B7,,3,,4,,5,,4,,
3>7b[35#16:1],,,,4,,4,5,4,5,,6,5,6,,6,
6<2[35#16:1],,,,4h[4:1],,,,3,,4,,5,,4,,
3>7pp2b[35#8:1],,,,4,,4,5,4,,6,5,,5,6,,
6>2[35#16:1],,,,,,,,E5f,,7,,8,,7,,
1>5b[35#16:1],,,,8,,8,7,8,7,,6,7,6,,6,
6p3[35#32:3],,,,{24}7x,8x,1x,7x,8x,1x,{16}5h[16:3],,,3h[16:3],,,4,,
65,,,,1,,1,,1h[16:5],,,5h[8:1],,,15,,
3b>7[35#16:1]/7b,,,,5h[32:1],6h[32:1],5h[24:1],6h[24:1],5h[16:1],6h[16:1],5h[12:1],6h[12:1],{48}B5,C,B1f,{16},,,
6<2b[35#16:1],,,,5,,5,4,5,4,,3,4,3,,3,
3>7-3-8[35#32:3],,,,5h[4:1],,,,6,,5,,4v6-4b[35#16:1],,5,,
6,,,,5,,5,5,5,,,37,,,,,
1b<5[35#16:1],,,3b,,,5b,,2/Cf,,3,,4,,3,,
4<8b[35#16:1],,,,3,,3,2,3,2,,1,2,1,,1,
1-5[35#32:1],,,,{24}2x,3x,4x,2x,3x,4x,{16}8h[16:3],,,6h[16:3],,,7,,
18,,8,,78,,8,,26,26,,{32}8,1,2,3,4/8b,5/1b,{16}6/2b,,
2p5p8p3[35#4:3]/6h[4:3],,,,,,,,,,,,,,,,
1h[4:3],,,,,,,,,,,,,,,,
4h[4:3],,,,,,,,,,,,,,,,
7h[4:3],,,,,,,,,,,,,,,,
5-7v6^8v1[35#8:3]*-3v4^2v1[35#8:3],,,,,,,,,,,,,,,,
,,,,,,,,,,,,,,,,
,,,,,,,,,,,,,,18,,
18,,65,,18,,34,,1/8-4b[35#32:1],,7h[16:1],5h[16:1],3h[16:1],1h[16:1],7h[16:1],,
{24}2/7b^2v1-3[35#32:3],6,5,4,3,2,7,6,5,4,3,2,{16}8b,,3,,4,,5,,
6^3v4-2b[35#32:3],,,,4,,4,4,5,4,,4,{32}B8,B7,E7,,B1,B2,E3,,
{16}7^2v1-3[35#32:3],,,,8h[4:1],,,,1,,8,,4pp5^3b[35#16:1],,5,,
6h[8:3],,,,,,,6,57,,,42,,,,,
{32}2b-7v1^6[35#32:3],1,8,,{16},{32}2b,1,8,,{16},{32}2b,1,8,,{16}6,,5,,4,,3,,
2-4v3^5b[35#16:1],,,,5,,5,5,4,5,,5,{32}1,8,7,6,1,8,7,6,
{16}2-7-3[35#16:1],,,,{24}6,7,8,6,7,8,{16}16,,4,35,,7,78,,
2b/3,,4,,5,,46,,{32}7,8,1,2,3,4,2,1,8,7,6,5,{48}4/8b,3/7b,2/6b,1/5b,4b/8,3b/7,
{16}
2b/6p5[35#16:3],,,,,,,,7x,,,,,,,,
6p4[35#16:3],,,,,,,,8x,,,,,,,,
6p3[35#16:3],,,,,,,,1x,,,,,,,,
6,,,,,,,,2x,,,,,,,,
3qq4[35#16:3],,,,,,,,A5,,,,,,,,
3qq5[35#16:3],,,,,,,,A6,,,,,,,,
3qq6[35#16:3],,,,,,,,A7,,,,,,,,
3,,,,,,,,A8,,,,,,,,
2q7q4q1[35#4:3],,,,,,,,A6,,,,,,,,
,,,,,,,,A3,,,,,,,,
,,,,,,,,A8,,,,,,,,
,,,,,,,,A5,,,,,,,,
Chf[1:2],,,,,,,,E1,,,,,,,,
E3,,,,,,,,E5,,,,,,,,
E7,,,,,,,,,,,,1w5[35#32:1]/8,,,,
,,,,,,,,,,,,,,,,
,,,,,,,,,,,,,,,,
,,,,,,,,,,,,,,,,
E
