&title=COLORS
&artist=FLOW
&first=1.22
&des=Azuki
&lv_5=12
&inote_5=(136)
{1},
{16}1b/2bw6[8:4],,,,,,,,,,,,,,,,
{16}8b/7bw3[8:4],,,,,,,,,,,,,,,,
{16}4bqq1[8:4]/5bpp8[8:4],,,,,,,,,,,,,,,,
{16}3,4,1,7,4V62[16:4],5V37[16:3],2,,,,,,,,,,
{16}1b^4[8:1]/8b^5[8:1],,,,18,,,,4,,4<8[4:1],,,,8>4[4:1],,
{16},,4<8[4:1],,,,8>4[4:1],,,,4-8[8:1],,5,,6,,
{16}7-4[8:1],,,,7/8-3[8:1],,,,18,,,,2,,2<7[8:1],,
{16},,7,,6<3[16:4],,5,,36,,,,4,,4,,
{16}3^6[8:1],,,,7,,7^2[8:1],,,,7/3V51[16:3],,,,3/7,,
{16},,6,,15,,24,,3h[8:1],,8,5,8,4,8,3,
{16}8bV62[16:3],,2,,3,3,,4,,4-8[8:1],,8,8,,7,,
{16}6V84[16:3],,5,,3,3,,2,,2-6[8:1],,6,6,,7,,
{4}8<3[8:4],1,1,1,
{4}1/3<7[16:7],1,1,1,
{4}8<5[8:3]/1,1,1,1s5[8:6],
{4}5,6,7,8,
{4}8b-4[8:4],1,1,1,
{4}1/5-8[8:4],1,1,1,
{4}8<5[8:3]/1,1,1,{8}1,2h[8:2]/5h[8:2],
{8},,3/4p8[8:1]*q8[8:1],,,,2b/6b,4-8[8:1],
{8}35,,6,7-3[8:1],86,,1,2-6[8:1],
{8}13,,4,5-1[8:1],46,,2,3-7[8:1],
{8}24,,5,6-2[8:1],57,,8,1-5[8:1],
{8}2-6[8:1],1>7[8:2],2,1,,,1,2-6[8:1]/7-2[8:1],
{8}38,,,5-1[8:1]/1-6[8:1],48,,,2-4[8:1]/5-1[8:1],
{8}1/4,,,4-8[8:1]/8-4[8:1],51,,,15,
{8}3V57[4:1]/7,,7V13[4:1],7,,4V27[4:1],,8,
{8},6,5,4V61[4:1],1,2,3,,
{8}4h[4:1]/1,,1,3h[8:2]/8,,8,1,7/2h[4:1],
{8},7,8,6/1h[4:1],,6h[8:2],5,4,
{8}4h[8:3],5,6,7,81,27,36,4w8[8:2]/5,
{8},,,,{16}1,8,2,7,3,6,4,5,
{16}3b-8[8:1],,,,34,,,,78,,7^4[8:1],,,,3^8[8:1],,
{16},,6^3[8:1],,,,2^7[8:1],,,,5^2[8:1],,,,1,,
{16}1^6[8:1],,,,4-8[8:1],,,,4-1[8:1],,,,7,,6V84[8:2],,
{16},,3,,2w6[8:1],,1,,,,,,48,,2,4,
{16}3b^5[32:3],,,,6,,6qq4[8:1],,,,2p6[8:1],,,,7>4[8:2],,
{16}8,,,,5,,5p1[8:1],,,,5/8<2[8:3],,,,5p1[8:1],,
{16}5,,,,,,,,7,6,45,,45,,1/6h[16:7],,
{16}8,,7,,5,5V73[16:3],,4,4,
,1,,2,,3,,
{16}3bv8[8:1]/4b-7[8:1],,2,5,34,,,,78,,7^4[8:1]/8,,,,7/3^8[8:1],,
{16},,6^3[8:1]/3,,,,6/2^7[8:1],,,,2/5^2[8:1],,,,5/1,,
{16}1^6[8:1],,,,1/8>3[8:1],,,,8/4-7[8:1],,,,1/4,,2V48[8:2],,
{16},,72,,6^1[8:1]*^3[8:1],,5,,6,,,,13,,2,4,
{16}3b-7[8:1],,,,53,,5-1[8:1],,,,8V26[16:3]/5,,,,82,,
{16}3,,4,,25,,34,,3h[8:1],,8,5,8,4,8,3,
{16}8bV62[16:3],,2,,3,3,,4,,4-8[8:1],,8,8,,7,,
{16}6V84[16:3],,5,,3,3,,2,,2-6[8:1],,6,6,,7,,
