&title=Bad Apple!!
&artist=上海アリス幻樂団
&first=0.02
&des=NaOH
&clock_count=4
&lv_4=9+
&lv_5=13
&inote_4=(160.73),,,,,,,,
{4},,,,,,,,
4,4,4,4,5,5,5,5,34,34,12,12,78,78,56,56,
7h[4:1],5h[4:1],6h[4:1],4h[4:1],7h[4:1],5h[4:1],6h[4:1],4h[4:1],
6-3[8:1],,2-7[8:1],,5-8[8:1],,1-4[8:1],,
7h[4:1],3h[4:1],6h[4:1],4h[4:1],7h[4:1],3h[4:1],6h[4:1],4h[4:1],
8-5[8:1],,3-8[8:1],,4-1[8:1]/5-8[8:1],,{8}36,36,4b/5b,,
3,3,4,4,2h[4:1],,6,5,4,,36,,5,6,47,,
8,8,1,1,7h[4:1],,2,,34,,56,,47,,38,,
6,6,5,5,7h[4:1],,4,3,2,,18,,67,,45,,
2,2,4,4,1h[4:1],,8,,45,,36,,27,,8qq4[4:3]/1,,
{4}
1b,,,,2q5[4:3],,,,6pp1[4:3],,,,2pp5[4:3],,,,
8,8,17,17,26,26,35,35,4h[4:1],{8}5<8[4:1],5,4,,,,
2h[4:1],,4,,3,4,25,,
7h[4:1],,5,,6,5,47,,2h[4:1],,8,,1,7,18,,
3h[4:1],,4,4h[8:3],,2,2,,6h[4:1],,5,5h[8:3],,7,7,,
2h[4:1]/8,,5,,5,6,27,,7h[4:1]/1,,4,,4,3,72,,1h[4:3]/8,,7,,6,,5,,
45,,36,,27,,1b/8b,,
3,3,,2h[4:1]/4,,5,5,,6,6,5,5h[8:2],,,8,,
27,27,,3h[4:1],,4,4,,2h[4:1]/6h[4:1],,,,3,4,5,,
6,6,,7h[4:1]/5,,4,4,,3,3,4,4h[8:2],,,1,,
72,72,,6h[4:1],,5,5,,7h[4:1]/3h[4:1],,,,6-1[8:1],,5b,,
34,34,,2h[4:1]/5,,1,1,,7,7,1,1h[4:1],,6,6,,
34,25,,3h[4:1]/4,,8,8,,8-3[8:1]*-5[8:1],,,,4,4,35,,
65,65,,7h[4:1]/4,,8,8,,2,2,8,8h[4:1],,3,3,,
65,74,,6h[4:1]/5,,1,1,,
2bpp5[4:2]/8bqq5[4:2],,,,,,,,1,,1,,1,,1,,1,,1,,1,,1,,1,,
&inote_5=(160.73)
{4},,,,,,,,
5,5,5,5,5,5,5,5,
{8}5,1,5,1,5,2,5,2,5,3,5,3,5,3,5,4,
5h[4:7],4h[8:1],,3h[8:1],,2h[8:1],,1h[8:1],,8h[8:1],,7h[8:1],,8h[8:1],,1,
1V35[4:1],,5V71[4:1],,1>5[4:1],,6,,8V64[4:1],,4V28[4:1],,8<4[4:1],,4,,
2-6[8:1],,8,,7-3[8:1],,1,,1-5[8:1],,7-4[8:1],,2-6[8:1],,8<5[4:1],,
5p8[4:1],,8<5[4:1],,4,,1>4[4:1],,4q1[4:1],,1>4[4:1],,6,,6-3[8:1],,
1,,2-5[8:1],,8,,7-4[8:1],,1-5[8:1],,8,,7,36,4b/5b,,
4,4,35,35,2-7[8:1]/6,,6,5,4-8[8:1],,1>4[8:1],,7,6,5,4,
3,3,24,24,1>4[8:1]/5,,8,7,6h[4:1],5,4h[4:1],5,6h[4:1],5,3h[4:1],4,
5,5,46,46,7-2[8:1]/3,,3,4,5>2[8:1],,5<8[8:1],,5-1[8:1],,5,,
6,6,57,57,8<5[8:1]/4,,3,2,1>4[8:1],,1<6[8:1],,1-5[8:1],,1qq5[4:3],,
1b,,,,4,3,2pp6[4:3],,2b,,,7,,,8qq4[4:3],,8b,,2,2,,3,3qq8[4:3],,3b,,5,5,,6,6-4[12:1],,
2-5[8:1]/6,,2V84[4:1]/6,,7,6,5<8[8:1],,3-5[12:1]/5,,36,7V51[4:1],,37,2>5[8:1],,
28,,7>5[8:3],18,7/3h[4:1],,,,2-5[8:1],,6-1[8:1]/2,,4,3,3-5[12:1],,
7-4[8:1]/3,,7V15[4:1]/3,,2,3,4>1[8:1],,6-4[12:1]/4,,63,2V48[4:1],,62,7<4[8:1],,
71,,2,3-8[8:1]/7,,6,5<8[8:1],,45,,3-5[8:1],5-2[8:1],,8,8<3[4:1],,
8/1h[4:1],,,,4,5,46,57,8-3[8:1]/4,,4-1[8:1],4,,5,6<2[4:1],,
2V46[4:1],,6<2[4:1],,2V46[4:1],,6pp2[4:3],,2b,,3b,,4b,,5b,,
{8}
6,5-1[8:1]/7-4[8:1],,57,,3,26,15,1-5[8:1],8<3[4:1],1,8,,2,1,8,
1,8-4[8:1]/2-5[8:1],,28,,2-5[8:1],6pp4[8:3],2,6b,,,,{16}2,1,2,1,3,8,3,8,
{8}3,4-8[8:1]/2-5[8:1],,42,,6,73,84,8-4[8:1],1>6[4:1],8,1,,7,8,1,
8,1>4[8:1]/8<5[8:1],,18,,17,2-5[8:1]/6,5-1[8:1]*-7[8:1],2b,,,,{16}8,4,8,4,7,3,7,3,
{8}6,6-1[8:1]/2-5[8:1],,26,,48,37,26,15,1v4[8:1]*v6[8:1],37,1,,5,46,37,
28,8-3[8:1]*-5[8:1]/2,,8,,4-7[8:1],3qq5[8:3],4,3b,,,,{16}6,4,6,4,7,3,7,3,
{8}8,8-5[8:1]/4-1[8:1],,48,,37,26,15,1,6v1[8:1]/4v1[8:1],1,46,,28,37,46,
5,5w1[8:1],,5,,37,2q6[8:1]/6q2[8:1],48,6b>2[8:4]/2b<6[8:4],,,,,,,,
{4}5,5,5,5,5,5,5,5-1[8:1],45,
