&title=[HALO]
&artist=Blacklolita
&first=0
&des=[BAIBAI]
&lv_5=14
&inote_5=(150)
{1},
{8}1>8[4:5]/8<1[4:5],,,,,,,,,,,,,,,
{24}18,27,3s7[2:1]/6z2[2:1],4b/5b,,,,,,,,,,,,,,,,,,,,,,,,2z6[2:1]/7s3[2:1],,,,,,,,,,,,,,,,,,,,,,,,4bz8[2:1]/5bs1[2:1],,,,,,,,,,,,,,,,,,,,,,,,1b-7-3-5[2:1]/8b-2-6-4[2:1],,,,,,,,,,,,,,,,,,,,,,,,
{8}7-3[8:1],7,3,2,1/4-6[8:1],4,3,,7/5-1[8:1],5,8,7,2-4[8:1]/6-4[8:1],26,26,,
{16}3,6,5,6,2,6,5,6,1,6,5,6,8^3[8:1],6,5,6,8qq7[16:3],,,,,,,,3,8,4,1,5,5,5,,
{64}8b,,7x,,6x,,,,,,,,2b,,3x,,4x,,,,,,,,
{24}7,5,7,5,,,2,4,2,4-7[8:1],,,1-4[8:1],,,4,,,1,,,8-4[8:1],,,5<3[4:1],,,8,,,,,,
{16},,,,
{32}6b,7x,8x,,,,4b,3x,2x,,,,
{24}6,1,6,1,,,3,8,3,8-4[8:1],,,5-1[8:1],,,8-6[8:1],,,5,,,8,,,2,3,4,5,,,
{16}7-4[8:1],4,,4,7,,
{64}3b,,2x,,1x,,,,,,,,5b,,6x,,7x,,,,,,,,
{24}2,8,2,8,,,6,4,6,4-8[8:1],,,7-3[8:1],,,4,,,7,,,1<2[8:3],,,2,,,17,,,,,,
{16}8-3-1-4[8:3]*-5-7-4[8:3],,,,
{24},,,,,,,,,
{24},,,2b/6b,,,2,3,4,5-1[8:1],,,7,,,2-6[8:1],,,4,,,7^4[8:1],,,8pp5b[8:3],,,7,,,
{16},,,,,,
{32}8b,7x,6x,,,,2b,3x,
{24}4x,,,7,5,7,4^7[8:1],3,2,1,,,4,,,,,,4^7[8:1],3,2,1,,,4,,,2,3,4,5-7-4b[8:3],6,7,8,1,2,3-8[8:1],,,,,,3b,,,,,,,,,{24}1,6,1,6,,,8,3,8,3-8[8:1],,,7-4[8:1],,,3,,,7,,,1,2,3,5,6,7,
{24}8^5[8:1]/4^1[8:1],,,,,,,,,,,,
{64}6b,,7x,,8x,,,,,,,,4b,,3x,,2x,,,,,,,,
{24}7,1,7,1,,,3,5,3,5-1[8:1],,,2-6[8:1],,,5,,,2,,,8>7[8:3],,,7,,,82,,,,,,
{24}1-6-8-5[8:3]*-4-2-5[8:3],,,,,,,,,,,,,,,,,,7b/3b,,,7,6,5,4-8[8:1],,,2,,,7-3[8:1],,,5,,,2pp5b[8:3],,,1^6[4:1],,,2,,,
{16},,,,,,7-5-8-4[8:5]/1,,,,,,,,3-1[8:1],,,,,,,,2pp5[8:5]/5,,,,,,,,6-1b[8:1],,,,,,,,
27,,3,4,1,4,3,,27,,3,4,1,4,3,,
{24}27,6,5,{16}3,4,1<3[16:5],4,3,,1b/7,,,,,,,,2-4-1-5[8:5]/8,,,,,,,,6-8[8:1],,,,,,,,7qq4[8:5]/4,,,,,,,,3-8b[8:1],,,,,,,,
2,4,3,6,5,7,4,8,3^8[8:1],,7,,6pp5b[8:4],,5,,1x,,2,,3pp1[8:4],,4,,3b,,,,,,,,
7,6,5,4,8pp5[2:1],1,2,3,48,,,,,,,,4,3,2,1,4pp1[2:1],5,6,7,84,,,,,,,,
{32}7b,6x,5x,,,,,,
{16}2-7[8:1],4,3,4,2,,5,,61,,72,,8,5,6,5,7>5[16:5],4,5,4,7b,,,,,,,,
7-5-8-4[8:5]/1,,,,,,,,3-1[8:1],,,,,,,,2pp5[8:5]/5,,,,,,,,6-1b[8:1],,,,,,,,
7,5,6,2,4,3,8,8,3,4,2,6,5,7,
{24}3,5,3,4,,,6,4,6,
{16}5,5,5,5,5w1[8:1],,,,,,,,
{32}7x/2x,3xp1[2:3]/6xq8[32:47],5x/4,,,,,,,,,,,,,,,,,,,,,,,,,,,,,,
{16},,,,,,,,,,,,,,,,A2,E3,E4,A4,A7,E7,E6,A5,A1,B1,C,B5,A5/A8,B8,C,B4,A4/A2,B2,C,B6,A6/A7,B7,C,B3,A3/1h[8:3],,,,,,,,
{32}2x/8h[8:1],3x,,,,,,,6x/1h[8:1],5x,,,,,,,
{32}3x/8h[8:1],4x,,,,,,,7x/1h[8:1],6x,,,,,,,
{16}8,8,3,,6,5,,3,4-8[8:1],,4,,,,,,1,1,{32}7x,6x,,,
{32}2x,3x,,,6x,5x,,,3x,4x,,,7x,6x,,,1x,2x,,,,,,,
{16}1,,{24}7,6,5,{16}3,4,,6,5-1b[8:1],,5,,,,,,{32}2b/8b,3x/7x,4x/6x,,,,,,3^8[4:1],,,,,,,,8^5[4:1],,,,,,,,5^2[4:1],,,,,,,,2^7[4:1],,,,,,,,7^4[4:1],,,,,,,,4-1b[8:1],,,,,,,,,,,,,,,,
8<4[4:1],,,,,,,,4>8[4:1],,,,,,,,8<4[4:1],,,,,,,,4>8[4:1],,,,,,,,8<4[4:1],,,,,,,,4s8b[8:3],,,,,,,,2-6[8:1],,,,,,,,,,,,,,,,
{16}75,,75,,3,5,4,7,5,,18,,6,4,5,2,4,,71,,3,5,4,7,4,,18,,6,5,8,1,4,4,2,2,8,8,5,5,3,3,1,1,7q2[16:9],7,5p2[16:7],5,,,,,,,,,,,,,8,7,6,5,
3b/4,,2-6[8:1],8,3,4,2,,8,,7-4[8:1],1,6,5,7,,1,1,7,4,5,2,8,1,6-1[8:1],5,7,5,6,,,,
{32}4b/8b,37,26,15,,,,,
{24}27,,,1,2,3,{16}7-4[8:1],5,,5,{16}7,,{24}3,2,1,{16}5-8[8:1],8,,8,{24}5,,,2,3,4,{16}7,7,8,6,3,3,4,2,
6b,,7-3[8:1],1,5,3,7,,1,,2-6[8:1],8,4,6,2,,8,8,2,5,4,7,1,8,3,4,3,4,2,2,6,6,
{24}1,2,3,8,7,6,{16}45,,45,,34,34,,56,5b/6b,,,,3,4,2,2,6,5,7,7,
{32}3w7[8:1],2,1,8,7,6,5,4,3,,,,,,,,
{16}2,8,3,7h[16:3],,,5,,7,1,6,2h[16:3],,,4,,2,8,3,7h[16:3],,,{24}5,6,5,6,,,1,8,2,7,,,18,,,{16}2,4,3,3,7,5,6,6,
{24}8^5[8:1],1,2,3,4,5,8,,,,,,1^6[8:1],2,3,4,5,6,1,,,3,2,1,8,7,6,5,4,3,2h[8:1]/7,6,5,,,,
{16}1b,4,1,6,1,4,1,6,2,5,2,7,2,5,2,7,4,4,8,8,2,2,6,6,1,1,7,7,3,3,5,5,
{16}2b,4,3,7b,5,6,1,1,6b,5,7,3b,4,2,
{24}6,4,6,5,,,3,5,3,
{16}4<2[8:3]*>6[8:3],4,4,4,4b,,,,,,,,A4f/D4/D5/A3/A5/E4/E5/B4,,,,,,,,E3,,,,,,,,E1,,,,,,,,E7,,,,,,,,C/1b>5[1:2]*<5[1:2],,,,,,,,,,,,
E
