&title=打打打打打打打打打打
&artist=ヒゲドライバー join. SELEN
&first=0.04
&des=老吴
&des_7=老吴
&lv_7=14+
&inote_7=(156){4},,,,{1}3h[4:19],
{8},4h[8:29],{16},,,,,,,,,,,5h[16:45],
,,,,,,,,,,,,,6h[16:31],{8},,,,,,,,,,,,,,,,,{12}3$/4$,
3$/4$,3$/4$,5/6,5/6,5/6,3$/4$,3$/4$,3$/4$,3$b/4$b/5b/6b,{6},{16}1$/2$/7h[8:3],
3$,,2$/3$,{8}1$,8h[2:1],{16}7/6,5,,5/6,{8}7,7h[2:1],
{16}2$/3$,4$,,4$/3$,{8}2$,1$,1$/2$/8/7,1$/2$/7/8,{4}1$/2$/7/8,
{16}8/7/2h[8:3],6,,7/6,{8}8,1h[2:1],{16}2$/3$,4$,,4$/3$,{8}2$,2h[2:1],
{16}7/6,5,,5/6,{8}7,8,8/7/1$/2$,8/7/2$/1$,{4}8/7/2$/1$,
{16}4$/3$/6h[8:3],2$,,3$/2$,{8}4$,5h[2:1],{16}6/7,8,,8/7,{8}6,6h[2:1],
{16}3$/2$,1$,,1$/2$,{8}3$,4$,4$/3$/5/6,4$/3$/6/5,{4}4$/3$/6/5,
{16}5/6/3h[8:3],7,,6/7,{8}5,4h[2:1],{16}3$/2$,1$,,1$/2$,{8}3$,3h[2:1],
{16}6/7,8,,8/7,{8}6,5,5/6/4$/3$,5/6/3$/4$,{4}2$b/3$b/7b/6b,
1$/2$/8h[4:7],3$/4$,1$/2$,3$/4$,
1$/2$,5$/6$,2$/3$,6$/7$,
{16}3$/4$/7h[8:15],5$,{8}6$,{16}3$/4$,5$,{8}6$,{16}3$/4$,5$,{8}6$,{16}3$/4$,5$,{8}6$,
{16}2$/3$,1$,{8}8$,{16}2$/3$,1$,{8}8$,{16}6$/5$,{8},{16}4$/3$,{8},2$/1$,
{4}8/7/1h[4:7],6/5,8/7,6/5,
8/7,4/3,7/6,3/2,
{16}6/5/2h[8:11],4,{8}3,{16}6/5,4,{8}3,{16}6/5,4,{8}3,{16}6/5,4,{8}3,
{16}7/6,8,{8}1,{16}6/7,8,{8}1,{2}7/8/2-4[8:1]/1-4[8:1]/7?-5[8:1]/8?-5[8:1],
{16}4$/6/7h[8:3]/3h[8:3],{8},{16}6/4$,{8},4$/6,{16}5/3$/2h[8:3]/6h[8:3],{8},{16}3$/5,{8},5/3$,
{16}4$/6/7h[8:3]/3h[8:3],{8},{16}4$/6,{8},4$/6,5/6/2$/1$/2?-4[8:1]/1?-4[8:1]/5?-8[8:1]/6?-8[8:1],1$/2$/5/6,{4}2$/1$/6/5,
{16}5/3$/2h[8:3]/6h[8:3],{8},{16}3$/5,{8},5/3$,{16}6/4$/7h[8:3]/3h[8:3],{8},{16}4$/6,{8},6/4$,
{16}5/3$/2h[8:3]/6h[8:3],{8},{16}3$/5,{8},5/3$,7/8/3$/4$/8?-5[8:1]/7?-5[8:1]/4?-1[8:1]/3?-1[8:1],8/7/4$/3$,{4}7/8/3$/4$,
{16}1-4[8:1]*>4[8:1],5,,5,{8}1-6[8:1]*<6[8:1],5,{16}1-4[8:1]*>4[8:1],5,,5,{8}1-6[8:1]*<6[8:1],5,
{16}1-4[8:1]*>4[8:1],5,,5,{8}1-6[8:1]*<6[8:1],5,{4}1$/1?-4[8:1]*>4[8:1],1$,
{16}6/6?-3[8:1]*>3[8:1],2$,,2$,{8}6/6?-1[8:1]*<1[8:1],2$,{16}6/6?-3[8:1]*>3[8:1],2$,,2$,{8}6/6?-1[8:1]*<1[8:1],2$,
{16}6/6?-3[8:1]*>3[8:1],2$,,2$,{8}6,2$,{16}2$/1$,8/7,2$/1$,8/7,{4}2$b/1$b,
4$/3$/5h[4:7],2$/1$,4$/3$,2$/1$,
4$/3$,8$/7$,3$/2$,7$/6$,
{16}2$/1$/6h[8:15],8$,{8}7$,{16}2$/1$,8$,{8}7$,{16}2$/1$,8$,{8}7$,{16}2$/1$,8$,{8}7$,
{16}4$/5$,3$,{8}2$,{16}5$/4$,3$,{8}2$,{16}7$/8$,{8},{16}1$/2$,{8},4$/3$,
{4}5/6/4h[4:7],7/8,5/6,7/8,
5/6,1/2,6/7,2/3,
{16}7/8/3h[1:1],1,{8}2,{16}7/8,1,{8}2,{16}7/8,1,{8}2,{16}7/8,1,{8}2,
{16}5/6,4$,5/6,7$,5/6,4$,5/6,7$,{4}5/6,1$b/2$b/7b/8b/3?-6[8:1],
{16}3$/7?-2[8:1],8,,8,{8}7$/3?-6[8:1],1,{16}3$/7?-2[8:1],8,,8,{8}7$/3?-6[8:1],1,
{16}3$/7?-2[8:1],8,,8,{8}7$,1,2$/3$/1b,5/6/4$b,{4}7b/8b/1$/1?-4[8:1],
{8}1$/4?-1[8:1],8/7,4$/1?-4[8:1],6/5,1$/4?-1[8:1],8/7,4$,6/5,
1$b/8$b,5b/6b,2$b/3$b,7b/8b,{4}4$b/5$b,6b/5b/3$b/4$b/7?-2[8:1],
{16}7/3?-6[8:1],4$,,4$,{8}3/7?-2[8:1],5$,{16}7/3?-6[8:1],4$,,4$,{8}3/7?-2[8:1],5$,
{16}7/3?-6[8:1],4$,,4$,{8}3,5$,6/7/5$b,1$/2$/8b,{4}3$b/4$b/5/5?<1[4:1],
1?>5[4:1],5?<1[4:1],1?>5[4:1],{8}5?-7[8:1],7?-1[8:1],
1?-3[8:1],3?-5[8:1],5?-7[8:1],7?-1[8:1],1?-3[8:1],3?-5[8:1],{4},{16}1$/2$,
7,4$,7,1$/2$,7,4$,7,2$/1$,7,4$,7,2$/1$,7,4$,7,
{32}1$/2$,3$,4$,5$,7/8,6,5,4,1$/2$,3$,4$,5$,8/7,6,5,4,{2}1$b/8$b/8?-5[8:1]/1?-4[8:1],
{12}3$/4$/5/6,3$/4$,3$/4$,3$/4$/5/6,6/5,5/6,3$/4$/5/6,3$/4$,3$/4$,3$/4$/5/6,{6},{12}2$/3$/6/7,
7/6,6/7,3$/2$/7/6,2$/3$,3$/2$,2$/3$/6/7,7/6,6/7,3$/2$/7/6,{6},{12}2$/1$/8/7,
1$/2$,2$/1$,7/6/1$/2$,6/7,7/6,7/6/3$/4$,4$/3$,3$/4$,4$/3$/6/5,5/6,6/5,
5/6/1$/2$,1$/2$,1$/2$,1$/2$/8/7,1$/2$/7/8,1$/2$/8/7,{4}1$/2$/7/8,2$b/3$b/6b/7b/2?-7[8:1],
{12}2$b/1?-4[8:1],6/5,5/6,1$b/2?-7[8:1],5/6,6/5,2$b/1?-4[8:1],6/5,5/6,1$b/7?-2[8:1],7/6,7/6,
7b/8?-5[8:1],3$/4$,4$/3$,8b/7?-2[8:1],4$/3$,3$/4$,7b/8?-5[8:1],3/4,4/3,8b,2$/3$,2$/3$,
5b/6b,1$/2$,8/7,6$b/5$b,7/8,1$/2$,4b/3b,1$/2$,7/8,6$b/5$b,8/7,1$/2$,
4b/3b,5$/6$,8/7,6$b/5$b,3/4,1$/8$,{2}4b/5b/4?-2[8:1]*-8[6:1]*-6[12:1]/5?-7[8:1]*-1[6:1]*-3[12:1],
{12}1$b/8$b/7b/6b/1?-4[8:1]/6?-4[8:1]/7?-4[8:1]/8?-4[8:1],8$/1$/7/6,{6}1$/8$/6/7,,{12}8b/1b/2$b/3$b/8?-5[8:1]/3?-5[8:1]/2?-5[8:1]/1?-5[8:1],1/8/2$/3$,{3}8/1/3$/2$,
{12}3$b/4$b/7b/6b,3$/7/6/4$,6/4$/3$/7,5b/2$b/3$b/6b,5/6/2$/3$,6/2$/3$/5,{2}3$b/4$b/7b/6b/4?-8[8:1]/3?-7[8:1]/8?-4[8:1]/7?-3[8:1],
{16}1$/2$,5/4,,4/5,{8}7$/8$,7$/8$,{16}7$/8$,5/4,,4/5,{8}2$/1$,1$/2$,
{16}1$/2$,5/4,,4/5,{8}7$/8$,7$/8$,8$/1$/5/4,1$/2$/5/6,{4}2$/3$/6/7,
{16}8/7,4$/5$,,5$/4$,{8}1/2,1/2,{16}1/2,4$/5$,,5$/4$,{8}7/8,8/7,
{16}8/7,4$/5$,,5$/4$,{8}1/2,1/2,1/8/5$/4$,7/8/4$/3$,{4}7/6/3$/2$,
{16}1$/8$,5/6,,5/6,{8}4$/3$,3$/4$,{16}2/1,3$/4$,,3$/4$,{8}6/5,6/5,
{16}7$/8$,6/5,,5/6,{8}4$/3$,3$/4$,3$/4$/7/8,7/6/3$/2$,{4}6/5/2$/1$,
{16}3$/4$,6/7,4$/3$/4?-8[8:1]/3?-8[8:1],6/7,{4}3$/4$,{16}7/6,1$/2$,6/7/7?-3[8:1]/6?-2[8:1],2$/1$,{4}7/6,
{16}1$/8$,4/5,1$/2$,5/6,2$/3$,6/7,3$/4$,7/8,{8}4$/5$/5?w1[8:1]/4?w8[8:1],8/1,{4}4$b/5b,
E
