&title=Awake Now
&artist=雄之助
&first=0
&des=luxihe
&lv_5=13
&inote_5=(117){4},,,,{24}3h[8:1],
{6},{24}3,{8}4x,3/4,{12},{24}5,4,{12},{8}4x/5x,5/6,
{24}6h[8:1],{6},{24}4,{8}5w1[8:3],5x,{2},{8}3/4,
{24}5/4,,5,{12}4x,{24}4,6,{12},{8}7/5,{24}4/6,,3,{12}5x,{24}5,2,,2,
{8}6,{24}6/4,,5h[8:1]/3h[8:1],{8},6x/2x,{12}2,{24}2,5,,5,{12}4,{24}4,7,,7,
{8}4-2[8:1],4,{4}8x,{8}5-7[8:1],5,{4}1x,
{8}3,2/4,1>4[8:1],8/7,{4}6h[8:1],{12}6/5x,6x/5,{24},7xh[24:1],
{8},8,8-4[8:1],1/2,{4}3h[8:1],{12}4x/2,4/2x,{24},1xh[24:1],
{8},8,8/7,1/6,{24}5x,4x,5x,2bx,{12},{4}2bx,
{8}6-8[8:1],6,B4/E4/B3,2,1-3[8:1],1,E7/B6/B7,5,
6,7/5,1x/8x<5[8:1],1/2,{4}3xh[8:1],{12}3x/4x,3x/4x,{24},2h[24:1],
{8},1,8x/1x>4[8:1],8/7,{4}5xh[8:1],{8}6/5,5/4,
4/2,1,6/4,7,{12}3/4,{24}2,1,,1,{12}8,{24}8,7,,7,
{4}6b>7[4:7],B8,,C,
,B4,,C,
1s5<4[4:7],E2,,C,
,E6,,C,
8<1[4:7],C,,E8,
,E4,,C,
{8}8h[8:1],7h[8:1],6h[8:1],5h[8:1],3xh[8:1],1xh[8:1],{4}7x-3[32:3],
5bs1b[8:3],{2},{8}4bx/5bx,4bx/5bx,
2x>4[12:1],5x/6x<8[12:1],2x-6[12:1],6x,2x,{24}8,,8,{8}1>4[12:1],5,
1/7-3[12:1],8,2x-5b[12:1]/7x-1[12:1],1,{4}2b/7b,{8}3/8-5[8:1],2,
{4}1/8x-3[8:1],7/8x<5[8:1],2/8x>3[8:1],8x/6,
{8}8x-3[8:1],3x>8[8:1],8x<5[8:1],5x,{4}4x-8[12:1]*-2[12:1],4b,
{8}1/8<6[12:1],5/4>2[12:1],8xp4[12:1],4x,8x,{24}1,,1,{8}7<4[12:1],8,
7/1-5[12:1],2,5x>2b[12:1]/1x<6[12:1],7,{4}5bx/1bx,{8}6/1>4b[8:1],7,
{4}8/1x<6b[8:1],2/1x-3<4b[8:1],7b/1bx-7<6b[8:1],1bx/3b,
{8}3-5[12:1],7-1[12:1],3x-1[12:1],7xqq8[4:1],3x,7x,{4}4x<4b[8:3],
Cf,5x,5<3[4:1],3x,
4>6[4:1],6x,5<3[4:1],3x,
4>6[4:1],6x,5<3[4:1],3x,
4xh[4:1],{12}5x,5xh[8:1],,7/3,7xh[8:1]/3xh[8:1],,{8}2x/8x,1x-7-2-6-3-5b[8:5],
{1}1bxh[4:3],
7h[4:3]/4-8-6[8:3],
1h[4:3]/7-5v4-2[2:1],
2h[4:3]/5-1-3[8:3],
{2}1v4[8:1]/5-8[8:1],{4}2/6-2[8:1],2<3[16:5],
3,B1,5h[4:1],B3,
4h[4:1],B7,5h[4:1],C,
{8}1h[8:1],2h[8:1],3h[8:1],4h[8:1],6xh[8:1],8xh[8:1],2x-6[32:3],4x,
{4}4bz8b[8:3],{2},{24}1x,2x,3x,7x,6x,5x,
{12}3bx,{24}1,2,,4,{12}5,{24}7,8,,4,{12}5,{24}7,2,{12},{8}1bx/8bx,2b/7b,
1x/7x<5[12:1],5x/3x>1[12:1],7x-3[12:1],3x,7x,{24}1,,1,{8}8<5[12:1],4,
8/2-6[12:1],1,7x-3b[12:1]/2x-8[12:1],8,{24}7b/2b,C,{6},{8}6/1-4[8:1],7,
{4}8/1x-6[8:1],2/1x>4[8:1],{32}7/1x<6[8:1],E2,E3,E4,{8},{32}1x/3,E1,E8,E7,{8},1x-6[8:1],
6x<1[8:1],1x>4[8:1],4x,{4}5x-1[12:1]*-7[12:1],5b,
{8}8x/1x>3[12:1],4/5<7[12:1],1xq5[12:1],5x,1x,{24}8,,8,{8}2>5[12:1],1,
2/8-4[12:1],7,4x<7b[12:1]/8x>3[12:1],2,{4}4bx/8bx,{8}3/8<5b[8:1],2,
{4}1/8x>3b[8:1],7/8x-6>5b[8:1],{48}2b/8bx-2>3b[8:1],D8,A7,D7,A6,D6,{8},{48}8bx/6b,D1,A1,D2,A2,D3,{8},6-4[12:1],
2-8[12:1],6x-8[12:1],2xpp1[4:1],6x,2x,{4}Cf,
{12}6b,{24}6,5,,5,{12}7,{24}2,1,,3,{12}4,{24}4,3,,3,{12}8,{24}5,6,{12},3,
{24}3,4,,4,{12}2,{24}7,8,,6,{12}5,{24}5,6,,6,{12}2,{24}4,3,,3,
{8}8-4[8:1],7,8/2>5[8:1],1,2/6pp5[4:1],7,6/4,3,
{12}2,{24}2,4,,4,{12}5-1[12:1],{24}5,7,,7,5x,{6},{24}1x/5x,{8}2x-7[12:1]/6x-3[12:1],4x/8x,
{4}2b/6b,{12}2b,{24}7,8,,6,{12}5,{24}5,7,,7,{12}1,{24}4,3,{12},6,
{24}6,5,,5,{12}7,{24}2,1,,3,{12}4,{24}4,2,,2,{12}8,{24}5,6,,6,
{8}1<6[8:1],2,3/1,4h[8:1],5>2[8:1],6,7/5,8h[8:1],
{4}1-5[8:1],6,{12}7,{24}7,5,,5,{12}4-1[12:1],{24}4,2,,2,
