&title=Melodiniq
&artist=onoken a.k.a.owl*ltree
&first=0.03
&des=椛
&des_5=椛
&lv_5=15+
&inote_5=(193){16},,,,,,,,,,,,,,,,{2}A3h[2:3]/8<4[1:1],
E4h[1:1],
B3h[2:1],{12},,,,,,
{2}A6h[2:3]/1>5[1:1],E6h[1:1],
B6h[2:1],{12},,,,,,
6h[2:1],7,8,1,2,3,4h[2:1],5,6,7,8,1,
2h[2:1],5,6,7,8,1,E2,E3,E4,E8,E7,E6,
{2}D5h[8:15],B5h[8:11],
B4h[8:7],Ch[8:3],
{1}8b<1b[4:11]/1b>8[4:13],
,,E1h[1:1],
{16}8<1[1:2],E2,E3,E4,{8}E5,{16}B8,B7,B6,B5,B4,B3,B2,B1,B8,B7,
B6,B5,,,,,,,,,,,,,,,{8}1>8b[2:3],
{16},,,,A7,E7,B6,B5,E5,B4,B3,E3,{8}A2,
{16},,,,D1,D2,D3,D4,D5,D6,D7,D8,D1,D2,D3,D4,
{8}6bh[2:5]/5xh[4:1],{16},,,,7,8,1,2,3,4,5,4,3,2,
{1}1-7-2v3-5[4:3],
{16},,,,,,5,4,3,2,1,8,1/7h[8:1],2,3,4,
{8}5/8h[8:5],{16},,,,7,6,5,4,3,2,8/1,7,6/2,5,
{8}3bh[1:2]/4xh[4:1],{16},,,,2,1,8,7,6,5,4,5,6,7,
{1}8-2-7-4[2:1],
{24}5,6,7,4,3,2,{16}5,6,4,3,{12}5,4,5,4,{24},{8}5,
{16}4h[8:3],,,5h[16:3],{48},,,,,,,,,,,,E4,A3,E6,A6,B3,E3,B6,E7,B2,E2,B7,E8,{32}B1,B8,{16}E1,,,2,
3,4,5,8,7,6,5,1,2,3,4,7,6,5,4,
2,1,8,7,4,5,6,7,2,3,4,5,6,7,8,1,
6,5,4,3,8,1,2,3,7,6,5,4,3,2,1,8,
5,7,4,7,3,7,2,7,1,6,1,5,1,4,1,3,
2,3,4,5,8,7,6,5,3,2,1,8,7,6,5,4,
7,6,5,4,1,2,3,4,6,7,8,1,2,3,4,5,
2,4,3,5,4,6,5,7,8,6,1,7,2,8,3,1,
4,5,3,6,2,7,1,8,2,1,3,8,4,7,5,6,
{4}3>8[8:1],D3h[16:1]/6>3[8:1],D6h[16:1]/1<6[8:1],D1h[16:1]/4>1[8:1],
D4h[16:1]/7<4[8:1],2/D7h[16:1],{16}8,1,2,3,4/5,6,7,8,
{4}1<8-6b[8:1],{32}E1/4>3-1b[8:1],E8,{16}E7,{32},,,,E4/7<6-4b[8:1],E3,{16}E2,{32},,,,E7/2<1-7b[8:1],E6,{16}E5,{32},,,,E2/5>4-2b[8:1],
E1,{16}E8,{32},,,,E5/8v6V82[8:3],E4,{16}E3,,,{8}1/8,2,{4}3,
{8}8b/4,{16}7,5,{8}6,{16}3,4,2-6[8:1],5,{8}1,6/2,4,
{16}1b,5,{16}2,4,{8}3,{16}6,5,7-3[8:1],4,{8}8,3/7,2,
{16}8,4,7,5,{8}6,{16}3,4,3,2,{8}3,{16}6,5,6,7,
{8}6,{16}1,8,2,7,3,6,4-8b[8:1],5,3,6,{4}B4f/4w8[2:5],
{8},,,,{4},{8},,
,,,,,,,,{4},
{8},,,,6h[8:3],2h[8:7],
,,3,3,4,4,{4}5w1[2:5],
{8},,,,{4},{8},,
,,,,,,,,{4},
{8},,,,3h[4:1],7h[4:1],
{32},4,5,6,,8,1,2,{24}3,4,5,6,7,8,{16}1,2,3,4,{4}5/6h[4:1],
{8}4h[4:1],5h[4:1],,3h[4:1],{4}4h[4:1],{8}2>5[4:1],2h[8:5],
,,,6,7,8,1>2v4[4:1],1h[4:1],
,,,3,2,1,8<7v5[4:1],8h[4:1],
,,,4/7,,5/2,3,4,
5h[4:1],4h[4:1],,6h[4:1],{4}5h[4:1],{8}7<4[4:1],7h[8:5],
,,,3,2,1,8>3[8:1],3pp5[16:3],
,B4h[8:1]/E5h[8:1],,,7,8,1<6[8:1],6qq4[16:3],
,E5h[8:1]/B5h[8:1],,,2,1,8,7,
6/5,{16}3,4,{8}2,3/4,{16}6,5,{8}7,8/1,2/7,
3/6,{16}4,5,{8}3,{16}5,4,{24}6,5,6,5,{48},,,,{16}8,1,7,2,
6,5,7,4,{8}6,{24}3,4,3,{16}4,2,5,4,{8}6,{16}3,8,
{24}2,1,2,1,{48},{16}3,{8}8,{16}6,1,{24}7,8,7,8,{48},{16}6,{8}1,{16}2,5,
{24}3,4,3,4,3,4,,,,1,2,3,6,5,6,5,6,5,,,,8,7,6,
2,4,2,4,2,4,,,,1,2,3,7,5,7,5,7,5,{32}E8,B8,B1,E2,E6,B5,B4,E4,
{1}8xq1[8:5],
(196){16}3/8-4b[16:29],7,6,5,{8}2<7[8:1],7>2[8:1],2,,,5,
{16}1,7,1,7,{12}5,6,5,{16}8-4[8:1],1,7,2,{4}8,
{8}3-7[4:3],7/2,{16}1,8,2,7,3,6,4,5,,,,,{8}6-2[4:3],
{16}8,1,2,3,4,5,{12}E3,E4,E5,E6,,,{4}4-8b[16:29],
{16}3,5,3,5,{12}2,6,1,5,3,4,
{24}2,1,2,1,2,1,{16}3,6,5,7,{12}4-8[8:1],6,3,4,{24},,,,{8}7-3[4:3],
3/5,{24}2,1,8,6,5,4,{8}1,8,{4}7,
{24}2-6[4:3],4,2,4,2,4,{8}1,8,{24}7,5,7,5,7,5,{4}8,
{16}1-5b[16:29],2,3,4,{8}7>2[8:1],2<7[8:1],7,,,3,
{16}8,2,8,2,{12}4,3,4,{16}1-5[8:1],8,2,7,,,,,{8}6-2[4:3],
2/7,{16}8,1,7,2,6,3,5,4,,,,,3-7[4:3],
5,{8}1,{16}6,4,8,2,{12}E7,E6,E5,E4,,,{4}5-1b[16:29],
{16}6,4,6,4,{12}7,3,8,4,6,5,
{16}7,8,7,8,{4}6,{12}5-1[8:1],7,4,5,,,{4}2-6[4:3],
{16}1,8,{8}1,6,5,4,3,
{16},,8,1,{4}8q1b[8:3],{32},,,,,,,,,,,,,,,,(206)3x,
4,5,6,3x,4,5,6,{24}3x,4,5,3x,4,5,{16}3x,4,3x,4,{12}3x,3x,3x,
6x,6x,6x,{48}6x,,,5,,,{16}6x,5,{24}6x,5,4,6x,5,4,{32}6x,5,4,3,6x,5,4,3,
{24}8,7,6,4,3,2,7,6,5,3,2,1,6,5,4,2,1,8,5,4,3,1,8,7,
{16}5,4,5,4,5,4,5,4,E6,E4,E7,E3,E8,E2,{8}E1,
(209){32}6x,5,4,3,6x,5,4,3,{24}6x,5,4,6x,5,4,{16}6x,5,6x,5,{12}6x,6x,6x,
3x,3x,3x,{48}3x,,,4,,,{16}3x,4,{24}3x,4,5,3x,4,5,{32}3x,4,5,6,3x,4,5,6,
{24}1,2,3,5,6,7,2,3,4,6,7,8,3,4,5,7,8,1,4,5,6,8,1,2,
{16}4,5,4,5,3,6,3,6,4,3,2,1,7,6,5,4,
(212){32}1x,2,3,4,1x,2,3,4,{24}1x,2,3,1x,2,3,{16}1x,2,1x,2,{12}1x,1x,1x,
8x,8x,8x,{48}8x,,,7,,,{16}8x,7,{24}8x,7,6,8x,7,6,{32}8x,7,6,5,8x,7,6,5,
(215){16}1,2,3,4,5/6,4,3,2,1/8,7,6,5,4/3,5,6,7,
{24}8/1,2,3,4,5,6,7/1,6,5,4,3,2,{32}1/8,7,6,5,4,3,2,1,8,7,6,5,4,3,2,1,
(218){4}4/8<5[8:1],{8}8/4,3,2-8[8:1],4-2[8:1],2,4,
{16}7,6,5,4,8,7,6,5,1,8,7,6,5,4,3,2,
(221){4}5/1>4[8:1],{8}1/5,6,7-1[8:1],5-7[8:1],7,5,
{16}2,3,4,5,1,2,3,4,{12}6/5,7,7,5/6,4,4,
(224){32}8x,7,6,5,8x,7,6,5,{24}8x,7,6,8x,7,6,{16}8x,7,8x,7,{12}8x,8x,8x,
1x,1x,1x,{48}1x,,,2,,,{16}1x,2,{24}1x,2,3,1x,2,3,{32}1x,2,3,4,1x,2,3,4,
(227){8}8,1/7,2/6,3/5,2/8,3/7,4/6,5,
{16}1,1,2,8,3,7,4,6,1,7,2,6,3,5,4,4,
(230){32}1,8,1,8,1,8,1,8,{24}1,8,1,8,1,8,{16}1,8,1,8,{12}1,8,1,
{16}6,5,6,5,7,7,3,4,3,4,2,2,6,7,3,2,
{1}E1h[1:1]/B1h[1:1]/B8h[1:1]/1xs5b[1.0435##0.7826]/8xz4[1.0435##0.7826],
{4},,,,(236)7b/2b-8[8:1],
{8}2-4[8:1],4v6[8:1],2,8-2[8:1],,8-6[8:1],
6-4[8:1],8,3,2,1-5[8:1],7-3[8:1],1,7,
{4}E3h[8:1]/B2h[12:1]/E2h[24:1],{8}5-7[8:1],3-5[8:1],5,3>7b[4:1],{48},,,,,,A3f,E3,A2,E2,A1,E1,
A8,E8,,,,,{8}5,{4}6-4[8:1]/4-8[8:1],{2}6-1[8:1]*-2[8:1],
{4}7b-1[8:1],{8}7-5[8:1],5v3[8:1],7,1-7[8:1],,1-3[8:1],
3-5[8:1],1,6,7,8-4[8:1],2-6[8:1],8,2,
{4}E7h[8:1]/B7h[12:1]/E8h[24:1],{8}1b/E5f,2b/E6f,3b/E7f,4b/E8f,5b/E1f,E2f/6b-3-5-2-4v1b[8:7],
,,,,,,,,{4}6h[2:1],
E7fh[4:1]/B7h[32:9]/B8h[16:5],{8},,,2,
,3,{4}3h[4:1]/E3fh[4:1]/B2h[32:9]/B1h[16:5],{8},,,,6,
6h[8:3],{4}E7fh[4:1]/B7h[32:9]/B8h[16:5],{8},,,2,
,3,{4}E3fh[4:1]/B2h[32:9]/B1h[16:5]/3>6b[4:1],{8},,,,,1/8,
{4}2/7-3[8:1],{8}7-5[8:1],4,7,2,
{16}1x,2,3,4,5h[8:1],,1,8,7-3[8:1],,3-5[8:1],,7,,2,,
{4}B8h[24:1]/E1h[12:1]/B1h[8:1],{8}3-1b[8:1],,5,6-4b[8:1],,8,
1,,3,4,,{16}1,8,2,7,3,6,
(240){4}4-1[8:1]/5-8b[8:1],E5f/D5/A5/A4,{8}2/7,3,4/5,6,
{12}7/5,4,3,7,6,5,1,8,7,4,3,2,
{8}8-4[8:1],8,7,6,5-1[8:1],5,4,3,
2-6[8:1],2,1,8,{12}7,4,6,{48}3,,,5,,,{24}2,4,2,
4,2,,{8}6,4,{24}7,5,7,5,7,,{8}4,5,6-4[8:1],
7,8,1-7[8:1],2,3,4,5,6,
{24}7,5,7,5,{6}7,{24},2,4,2,4,2,,,,,{8}1,8,
5/7,4/6,3/5,2/4,1/5,2/6,3/7,4/8,
{4}5>2[8:1],{8}1,8,7-3[8:1],8-2[8:1],7,8<5[4:1],
,8,3,2,{16}1,3,2,4,3,5,4,6,
{8}5-2[8:1],{16}7,7,{8}5,8-3[8:1],{16}4,4,{8}8,1-6[8:1],{16}6,6,
{8}1,4-7[8:1],{16}2,2,{8}4,{16}1,2,3,4,{24}8,1,2,3,4,5,
{8}6,5/7,4/6,5/3,{16}4/2,1,8,7,6,5,4,3,
{12}7,5,5,1,5,5,8,4,4,2,4,4,
{24}6,5,6,5,6,5,{8}6,{24}3,4,3,4,3,4,3,,,8,1,8,1,8,1,
{8}8,4/3,3/2,1/2,1/8,8/7,7/6,6/5,
{16}3,4,2,6,5,7,3,4,1,6,5,8,{24}2,4,2,4,{12}2,
{16}6,5,7,3,4,2,6,5,8,3,4,1,{24}7,5,7,5,{12}7,
{24}3,4,3,4,3,4,{12}2,1,8,{24}7,5,7,5,{12}7,{24}2,4,2,4,{12}2,
{24}6,5,6,5,6,5,{12}7,8,1,{24}2,4,2,4,{12}2,{24}7,5,7,5,{12}7,
{16}4,4,5,3,5,5,4,6,3,3,4,2,6,6,5,7,
3,3,4,4,1,1,5,5,4,4,8,8,5,5,6,6,
{24}4,5,4,5,4,5,3,6,3,6,3,6,2,7,2,7,2,7,1,8,1,8,1,8,
1/7,8/6,7/5,6/4,5/3,4,{32}3/5,4,3,2,1,8,7,6,5,4/6,3/7,2/8,1,8/2,7/3,6/4,{4}5-1b[8:1],
{1}B5f/5bw1[2:5]*w1[2:5],
{4},,,,,,,,3>8[4:3],
,,5>2[4:3],
,,{2}7<4[4:3],
{8},,E2,E3,E4,E6,E7,E8,
{4}E1h[4:1],E5h[4:1],{2}1w5[2:11],
{4},,,,,,,,,D1f,
E
