&title=西西里
&artist=周杰伦
&first=0
&des=任岸柯_Official
&lv_5=13+
&des_5=任岸柯_Official
&inote_5=
(90){4},{16},,,,,,,,,,,5,
,4,4,5,,6,,4,,3,3,3,,2,,4b,
,5,5,4,,6,,4/3,,3,,4,,5,,4b,
,5,5,5,,4,,3,,2,,7,,5,,4,
,3,3,5,,4,,6,,4,,3,,5h[8:1],,4b,
,4,4,4,,5,,8,,1,2,3,,7,,4b,
,5,5,5,,4,,B5,,B3,,E7,,B2,,4,
,5,5,5,,4,,3/2,,6/7,,5/4,,8-5[16:7]/1-4[16:7],,1b/8b,
,,,,,,,,,,,4/3,5,7-4[8:1],7,7b,
,,,3V17[16:3],2,4,2,3b,,,,8,7,8,2/1,7/8,
,6,,5q3[16:3],4,6,7,5b,,,,2v5[8:1],3,5,4,2b,
,,,6V41[16:3],7,3,5,6b,,,,2,4/3,5,6/7,8,
,7,6,8-4[8:1],7,4,3,8b,,,,3,4,2,8,B7/B6,
,B5/B4,,1,2,1h[8:1],,2,,,,3,4,8,2,3/4,
,5/6,4,B6,B2,B7,,B3f,,,,3,,4,,8-4[16:3],
,7,6,8,,5,,1-5[16:3],,2,3,1,,4,,8-4[16:3],
,7,6,8,,5,,1q6[4:1],,2,3,1,,6,,7,
,1,,6,,3,,4,5,4v7[8:1],,2,,4,,8,
,7,,1,,3,,4,5,4qq8[16:3],,3,,4,,,,7,
6,8,1,2/3,4/5,6,2,8,4p6[8:1],3,,4,,,,3,
6,8,4,2,6,7/8,6/5,4/3,2v4[8:1],3,,2,,,,5,
6,4h[8:1],,3,,2,3,4/5v7[16:3],,6,,5,,,,6,
5,3,,7,,6h[8:1],,5,,4h[4:1],,3,,3>8-4-6-2[16:15],
{1},{4},{24},B6,
B5,E5,,,B4,B3,E3,B2,B1,B8,{48},,,,,,,,,{16}4h[16:1]/3h[16:1],
,,{8}5h[16:1]/6h[16:1],{16},4h[16:1]/7h[16:1],,,5h[16:1]/1h[16:1],,,B7/B6,,B5,,5h[16:1]/6h[16:1],
,,{8}4h[16:1]/3h[16:1],{16},5h[16:1]/2h[16:1],,,4h[16:1]/8h[16:1],,,B2/B3,,B4,,4b,
,5,7,3,4,1,3,6,7/8,5p8[16:3],6,3,,5,,,,6,
5,7,3,4,6,4/3,2,4/2-5[8:1],5,1x,,2,,7h[16:1],
,,{8}6h[16:1]/5h[16:1],{16},4h[16:1]/3h[16:1],,,2h[16:1]/1V74[16:3],,,1,,4,,5h[16:1],
,,{8}6h[16:1]/7h[16:1],{16},5h[16:1]/4h[16:1],,,3h[16:1]/2h[16:1],,,1-5[16:31],,2,,1,
,2,3,4x,,5,4,3h[8:1],,,4,6h[8:1],,,,,,5,
6,5,,5,6,4h[8:1],,,3,6h[8:1],,,,4h[16:1]/3h[16:1],
,,{8}5h[16:1]/6h[16:1],{16},4h[16:1]/7h[16:1],,,5h[16:1]/1h[16:1],,,B7/B6,,B5,,5h[16:1]/6h[16:1],
,,{8}4h[16:1]/3h[16:1],{16},5h[16:1]/2h[16:1],,,4h[16:1]/8h[16:1],,,B2/B3,,B4,,,,3,
4,2,8,3,5,7,4,1p4[16:3],6,2,,1,,,,5,
4,7h[16:1],,3,5,5/6,4/3,8/1-4[8:1],2,1,,1,,6h[16:1],
,,{8}4h[16:1]/3h[16:1],{16},5h[16:1]/6h[16:1],,,8h[16:1]/1h[16:1],,,B6,,E2,,1h[16:1]/2h[16:1],
,,{8}3h[16:1]/4h[16:1],{16},5h[16:1]/6h[16:1],,,7,6,,8w4[16:25],,1,,8,
{1},{4},,{8},4h[8:1],
5h[8:1],3h[8:1],
2b,1,{16}2,,,4,,5,,8w4[2##1.5],,,,,7,
6,5,4,3,2,1,8,
E
