&title=ボイドロイド
&artist=r-906
&first=0
&lv_5=13
&des_5=虛無行走
&inote_5=
(156){4},{1},,,{4},,,{8}5h[4:1]/4>5[2:7],
,,5h[4:1],,,{4}5h[1:1],
{8},,,,,,,,4h[4:1],
,,4h[4:1],,,{4}4h[1:1],
,,,,5x/4x,
{16}6,5,{8}6,{16}4,5,4,5,{8}4,{16}3,4,
3,4,{8}3,6h[8:1],{16}4,6,{8}3h[8:1],{16}5,3,{4}5,
{8}2-5[8:1],1,2,7-4[8:1],8,7,2-5[8:1],1,
2,7-4[8:1],8,7,2b-5[8:1],1,{4}2,
{16}6/7h[8:1],,,5/6h[8:1],,,{8}4/5h[8:1],{16},3/4h[8:1],,,2/3h[8:1],,,1,
,8/1h[8:1],,,,7,{8}7,6h[8:1],5h[8:1],{4}4h[4:1],
{8}7<4[8:1],8,7,2>5[8:1],1,2,7<4[8:1],8,
7,2>5[8:1],1,2,7b<4[8:1],8,{4}7,
{8}3/2,{16}3,4,,6,{8}5,{16}2,4,,7,{4}5,
{16}3,4,3,4,,5,{8}4h[16:3],{16},6h[8:1],,5,{8}7,{16}4bx/6,3,
{4}2h[8:1],{16}2h,3,2h,4,{8}2h[4:1],5,{16},,2bx/6,3,
{4}4h[8:1],{16}4,5,3,6,4h[16:1],5h[16:1],3h[16:1],6h[16:1],,,,,6h[8:1]/4>3>2<1<8-4[4:3],
,,5h[8:1],,,{8}7h[8:1],{16},5h[8:1],,,{8}4<5<6<7>8-4[1:1],5,
{16},,,3h[8:1],,,{8}2h[8:1],{16},1h[8:1],,,{8}3,3,
{16}3h[16:3],,,5,,,4,5,3,6,{8}2h[8:1],7,{16}1,8,
2,7,3,6,4,5,3,5,2,5,{8}1<2[1.7308##0.7692],{4}Ch[4:1],
{16}1b-7<6>5-3>2b[1.1538##0.7692],,,1<7-5>4-2[0.8654##0.7692],,,{8}1b<8-6>4-2b[0.5769##0.7692],{16},1<8<7<6-4>2[0.2885##0.7692],,,{4}1b,
{8},,,,8/7,7,1/2b>1b[1.5385##0.7692],2,
{16}2-4<6-8>1[1.1538##0.7692],,,2b>3-5-7>1b[0.8654##0.7692],,,{8}2>4-6<7-1[0.5769##0.7692],{16},2b>3<4<5<6<7>8>1b[0.2885##0.7692],,,{4}2,
{8},,,2,1/8,7,8/7,8,
{16}8>7[1.1538##0.7692],,,8b-2-4-6<7b[0.8654##0.7692],,,{8}8>1-3-5-7[0.5769##0.7692],{16},8b>1>2>3<4<5<6<7b[0.2885##0.7692],,,{4}8,
{8},,,,6/5,7,1/8,7,
{16}7b<8b[1.1538##0.7692],,,7-5-3-1<8[0.8654##0.7692],,,{8}7b<6-4-2-8b[0.5769##0.7692],{16},7<6>5>4>3>2<1<8[0.2885##0.7692],,,{4}7b,
,,,,4h[4:1]/E6h[8:1],
{8}E7h[8:1],3xh[4:1],{4}E8h[8:1],4h[1:1]/Ch[1:1]/B7h[1:1]/B6h[1:1],
,,,,5h[4:1]/E4h[8:1],
{8}E3h[8:1],6xh[4:1],{4}E2h[8:1],5h[1:1]/Ch[1:1]/B2h[1:1]/B3h[1:1],
,,,,1h[4:1]/E8h[8:1],
{8}E7h[8:1],2xh[4:1],{4}E6h[8:1],1h[1:1]/Ch[1:1]/B6h[1:1]/B7h[1:1],
,,,,8h[4:1]/E2h[8:1],
{8}E3h[8:1],7xh[4:1],{4}E4h[8:1],8h[1:1]/Ch[1:1]/B3h[1:1]/B2h[1:1],
{16},,,,,,,,,,,,,,,,A7h[16:1]/D8fh[16:1]/A8h[16:1],
,,A3h[16:1]/D4fh[16:1]/A4h[16:1],,,{8}A6h[16:1]/D7fh[16:1]/A7h[16:1],{16},A3h[16:1]/D3fh[16:1]/A2h[16:1],,,{4}A6h[16:1]/D6fh[16:1]/A5h[16:1],
{16},,3x,4,3,4,2,5h[8:1],,,3,6,3,6,{8}4bh[#1.730759],
{16}E6fh[16:1],,,E7fh[16:1],,,{8}E8fh[16:1],{16},E1fh[16:1],{8},{16}E2fh[16:1],,,,,,,3,
1,3,{8}1h[16:3],{16},,2,8,1,7,{8}8bh[#2.115387],
{16}B8fh[16:1],,,B7fh[16:1],{8},E7fh[16:1],{16},B6fh[16:1],{8},{4}B5fh[16:1],
{8},,,5h[4:1],,,3-1>2-4-8-6<7-5[0.3846##1.5385],6,
{16}A6h[16:1],,,B6h[16:1],,,{8}Ch[16:1],{16},B2h[16:1],,,{4}A2h[16:1],
{8},,,,,,,,7/6,
{16}7,8,,2,{8}1,{16}6,8,,3,{4}1,
{16}7,8,7,8,,1,{8}8h[16:3],{16},2h[8:1],,1,{8}3,{16}8bx/2,7,
{4}6h[8:1],{16}6h,7,6h,8,{8}6h[4:1],1,{16},,6bx/2,7,
{4}8h[8:1],{16}8,1,7,2,8h[16:1],1h[16:1],7h[16:1],2h[16:1],,,,,{8}1/8,
1,7/2,7,6/3,3,5/4,5,
{16}4,5,3,6,2,7,1,8,1,7,2,6,3,5,{8}4,
{64}A6h[32:1],B6h[32:1],Ch[32:1],B2h[32:1],{16}A2h[32:1],{64},,,,A3h[32:1],B3h[32:1],Ch[32:1],B7h[32:1],{8}A7h[32:1],{64}A8h[32:1],B8h[32:1],Ch[32:1],B4h[32:1],{16}A4h[32:1],{64},,,,A1h[32:1],B1h[32:1],Ch[32:1],B5h[32:1],{8}A5h[32:1],Ch[8:1]/E1h[8:1]/E7h[8:1]/E5h[8:1]/E3h[8:1],,
{16},,,,,,,,,,,,,,,,5b-3>2<1-7<6b[1.1538##0.7692],
,,5>3-1<8-6[0.8654##0.7692],,,{8}5b>4-2<8-6b[0.5769##0.7692],{16},5>4>3>2-8<6[0.2885##0.7692],,,{4}5b,
{8},,,,4/3,3,5/6b<5b[1.5385##0.7692],6,
{16}6-8>2-4<5[1.1538##0.7692],,,6b<7-1-3<5b[0.8654##0.7692],,,{8}6<8-2>3-5[0.5769##0.7692],{16},6b<7>8>1>2>3<4<5b[0.2885##0.7692],,,{4}6,
{8},,,6,5/4,3,4/3,4,
{16}4<3[1.1538##0.7692],,,4b-6-8-2>3b[0.8654##0.7692],,,{8}4<5-7-1-3[0.5769##0.7692],{16},4b<5<6<7>8>1>2>3b[0.2885##0.7692],,,{4}4,
{8},,,,2/1,3,5/4,3,
{16}3b>4b[1.1538##0.7692],,,3-1-7-5>4[0.8654##0.7692],,,{8}3b>2-8-6-4b[0.5769##0.7692],{16},3>2<1<8<7<6>5>4[0.2885##0.7692],,,{4}3b,
{8},,,,5/4,3/6,2/7,1/8,
{16}8bx<1b[1.1538##0.7692],,,8-6-4>3>2<1[0.8654##0.7692],,,{8}8b<7<6>5-3-1b[0.5769##0.7692],{16},8p1[0.2885##0.7692],,,{4}8b,
{8},,,,8/7,6/5,4/3,2/1,
{16}1>2>3<4<5<6<7>8[1.1538##0.7692],,,1b-3-5<8b[0.8654##0.7692],,,{8}1>4-6-8[0.5769##0.7692],{16},1bq8b[0.2885##0.7692],,,{4}1,
{8},,,,1/2,3/4,5/6,7/8,
{16}8b-5b[1.1538##0.7692],,,8-4[0.8654##0.7692],,,{8}8b-3b[0.5769##0.7692],{16},8w4[0.2885##0.7692],,,{4}8b,
{8},,,,8/7,6/5,4/3,2/1,
{16}1-4[1.1538##0.7692],,,1b-5b[0.8654##0.7692],,,{8}1-6[0.5769##0.7692],{16},1bw5b[0.2885##0.7692],,,{4}1,
{8},,,,,,,,3h[4:1]/5bx>4>3>2<1<8<7<6>5-1b[4:31],
,,4h[4:1],,,{4}5h[1:1],
{8},,,,,,,,6h[4:1],
,,5h[4:1],,,{4}4h[1:1],
{8},,,,,,,,B4h[4:1],
,,E3h[4:1],,,{4}E2h[1:1],
{8},,,,,,,,E8h[4:1],
,,E7h[4:1],,,{4}B5h[4:5],
E
