&title=project_raputa.medley
&artist=sasakure.UK × TJ.hangneil
&first=0
&des=project_raputa.medley
&lv_7=宴
&inote_7=(230)
{1},
{1},
{1},,,,,,,,,,
(210)
{161}3/6h[1282:2559],,,,,,,,,,,,,,,,,,,,,,,,,,,
{571},,,,,,,,,,,,,,,,,,,,,,,,,,,,,,,,,,,,,,,,,,,,,,,,,,,,,,,,,,,,,,,,,,,,,,,,,,,,
{625}4,,,,,,,,,,,,,,,,,,,,,,,,,,,,,,,,,,,,,,,,,,,,,,,,,,,,,,,,,,,,,,,,,,,,,,,,,,,,,,,,,,,,,,,,,,,,,,,,,,,,,,,,,,,,,,,,,,,,,,,,,,,,,,,,,,,,,,,,,,,,,,,,,,,,,,,,,,,,,,,,,,,,,,,,,,,,,,,,,,,,,,,,,,,,
{143}5,,,,,,,,,,,,,,,,,,,,,,,,,,,,,,,,,,,,,,,,,,,
{893}7,,,,,,,,,,,,,,,,,,,,,,,,,,,,,,,,,,,,,,,,,,,,,,,,,,,,,,,,,,,,,,,,,,,,,,,,,,,,,,,,,,,,,,,,,,,,,,,,,,,,,,,,,,,,,,,,,,,,,,,,,,,,,,,,,,,,,,,,,,,,,,,,,,,,,,,,,,,,,,,,,,,,,,,,,,,,,,,,,,,,,,,,,,,,,,,,,,,,,,,,,,,,,,,,,,,,,,,,,,,,,,,,,,,,,,,,,,,,,
{207},,,,,,,,,,,,,
{593}8,,,,,,,,,,,,,,,,,,,,,,,,,,,,,,,,,,,,,,,,,,,,,,,,,,,,,,,,,,,,,,,,,,,,,,,,,,,,,,,,,,,,,,,,,,,,,,,,,,,,,,,,,,,,,,,,,,,,,,,,,,,,,,,,,,,,,,,,,,,,,,,,,,,,,,,,,,,,,,,,,,,,,,,,,,,,,,,,,,,,,,,,,,,,,,,,,,,,,,,,,,,,,,,,,,,,,,,,,,,,,,,,,,,1,,,,,,,,,,,,,,,,,,,,,,,,,,,,,,,,,,,,,,,,,,,,,,,,,,,,,,,,,,,,,,,,,,,,,,,,,,,,,,,,,,,,,,,,,,,,,,,,,,,,,,,,,,,,,,,,,,,,,,,,,,,,,,,,,,,,,,,,,,,,,,,,,,,,,,,,,,,,,,,,,,,,,,,,,,,,,,,,,,,,,,,,,,,,,,,,,,,,,,,,,,,,,,,,,,,,,,,,,,,,,,,,,,,
{169}2,,,,,,,,,,,,,,,,,,,,,,,,,,,,,
{587},,,,,,,,,,,,,,,,,,,,,,,,,,,,,,,,,,,,,,,,,,,,,,,,,,,,,,,,,,,,,,,,,,,,,,,,,,,,,,,,,,,,,,,,,,,,,,,,,,,,,,,,,,,,,,,,,,,,,,,,,,,,,,,,,,,,,,,,,,,,
{649}1/5,,,,,,,,,,,,,,,,,,,,,,,,,,,,,,,,,,,,,,,,,,,,,,,,,,,,,,,,,,,,,,,,,,,,,,,5/1,,,,,,,,,,,,,,,,,,,,,,,,,,,,,,,,,,,,,,,,,,,,,,,,,,,,,,,,,,,,,,,,,,,,,,,2/6,,,,,,,,,,,,,,,,,,,,,,,,,,,,,,,,,,,,,,,,,,,,,,,,,,,,,,,,,,,,,,,,,,,,,,,
{613}6/2,,,,,,,,,,,,,,,,,,,,,,,,,,,,,,,,,,,,,,,,,,,,,,,,,,,,,,,,,,,,,,,,,,,
{649}3/7,,,,,,,,,,,,,,,,,,,,,,,,,,,,,,,,,,,,,,,,,,,,,,,,,,,,,,,,,,,,,,,,,,,,,,,3/7,,,,,,,,,,,,,,,,,,,,,,,,,,,,,,,,,,,,,,,,,,,,,,,,,,,,,,,,,,,,,,,,,,,,,,,
{827}4/8,,,,,,,,,,,,,,,,,,,,,,,,,,,,,,,,,,,,,,,,,,,,,,,,,,,,,,,,,,,,,,,,,,,,,,,,,,,,,,,,,,,,,,,
{238},
{613}8/4,,,,,,,,,,,,,,,,,,,,,,,,,,,,,,,,,,,,,,,,,,,,,,,,,,,,,,,,,,,,,,,,,,,
{649}7/3,,,,,,,,,,,,,,,,,,,,,,,,,,,,,,,,,,,,,,,,,,,,,,,,,,,,,,,,,,,,,,,,,,,,,,,7/3,,,,,,,,,,,,,,,,,,,,,,,,,,,,,,,,,,,,,,,,,,,,,,,,,,,,,,,,,,,,,,,,,,,,,,,6/2,,,,,,,,,,,,,,,,,,,,,,,,,,,,,,,,,,,,,,,,,,,,,,,,,,,,,,,,,,,,,,,,,,,,,,,
{613}2/6,,,,,,,,,,,,,,,,,,,,,,,,,,,,,,,,,,,,,,,,,,,,,,,,,,,,,,,,,,,,,,,,,,,
{649}1,,,,,,,,,,,,,,,,,,,,,,,,,,,,,,,,,,,,,,,,,,,,,,,,,,,,,,,,,,,,,,,,,,,,,,,8,,,,,,,,,,,,,,,,,,,,,,,,,,,,,,,,,,,,,,,,,,,,,,,,,,,,,,,,,,,,,,,,,,,,,,,2,,,,,,,,,,,,,,,,,,,,,,,,,,,,,,,,,,,,,,,,,,,,,,,,,,,,,,,,,,,,,,,,,,,,,,,
{613}7,,,,,,,,,,,,,,,,,,,,,,,,,,,,,,,,,,,,,,,,,,,,,,,,,,,,,,,,,,,,,,,,,,,
{87}1,
{143},,,,,,,,,,,,,,
{649}8,,,,,,,,,,,,,,,,,,,,,,,,,,,,,,,,,,,,,,,,,,,,,,,,,,,,,,,,,,,,,,,,,,,,,,,4,,,,,,,,,,,,,,,,,,,,,,,,,,,,,,,,,,,,,,,,,,,,,,,,,,,,,,,,,,,,,,,,,,,,,,,
{613}5,,,,,,,,,,,,,,,,,,,,,,,,,,,,,,,,,,,,,,,,,,,,,,,,,,,,,,,,,,,,,,,,,,,
{649}3,,,,,,,,,,,,,,,,,,,,,,,,,,,,,,,,,,,,,,,,,,,,,,,,,,,,,,,,,,,,,,,,,,,,,,,
{653}6,,,,,,,,,,,,,,,,,,,,,,,,,,,,,,,,,,,,,,,,,,,,,,,,,,,
{639}4?-8[2500:547],,,,,,,,,,,,,,,,,,,,
{649}4$,,,,,,,,,,,,,,,,,,,,,,,,,,,,,,,,,,,,,,,,,,,,,,,,,,,,,,,,,,,,,,,,,,,,,,,
{613}5,,,,,,,,,,,,,,,,,,,,,,,,,,,,,,,,,,,,,,,,,,,,,,,,,,,,,,,,,,,,,,,,,,,
{337}4h[1883:412],,,,,,,,,,,,,,,,,,,,,,,,,,,,,,,,,,,,,,,,,,,,,,
{506},,,,,,,,,,,,,,,,,,,,,,,,,,,,,,,,,,,,,,,,,,,,,,,,,,,,,,,,,,,,,,,,,,,,,,,,,,,,,,,,,,,,,,,,,,,,,,,,,
{585}3/7,,,,,,,,,,,,,,,,,,,,,,,,,,,,,,,,
{989}2/6,,,,,,,,,,,,,,,,,,,,,,,,,,,,,,,,,,,,,,,,,,,,,,,,,,,,,,
{649}5/1,,,,,,,,,,,,,,,,,,,,,,,,,,,,,,,,,,,,,,,,,,,,,,,,,,,,,,,,,,,,,,,,,,,,,,,4,,,,,,,,,,,,,,,,,,,,,,,,,,,,,,,,,,,,,,,,,,,,,,,,,,,,,,,,,,,,,,,,,,,,,,,3,,,,,,,,,,,,,,,,,,,,,,,,,,,,,,,,,,,,,,,,,,,,,,,,,,,,,,,,,,,,,,,,,,,,,,,
{613}6,,,,,,,,,,,,,,,,,,,,,,,,,,,,,,,,,,,,,,,,,,,,,,,,,,,,,,,,,,,,,,,,,,,
{649}2,,,,,,,,,,,,,,,,,,,,,,,,,,,,,,,,,,,,,,,,,,,,,,,,,,,,,,,,,,,,,,,,,,,,,,,7,,,,,,,,,,,,,,,,,,,,,,,,,,,,,,,,,,,,,,,,,,,,,,,,,,,,,,,,,,,,,,,,,,,,,,,
{726}1,,,,,,,,,,,,,,,,,,,,,,,,,,,,,,,
{15},
{613}8,,,,,,,,,,,,,,,,,,,,,,,,,,,,,,,,,,,,,,,,,,,,,,,,,,,,,,,,,,,,,,,,,,,
{649}6,,,,,,,,,,,,,,,,,,,,,,,,,,,,,,,,,,,,,,,,,,,,,,,,,,,,,,,,,,,,,,,,,,,,,,,5,,,,,,,,,,,,,,,,,,,,,,,,,,,,,,,,,,,,,,,,,,,,,,,,,,,,,,,,,,,,,,,,,,,,,,,4,,,,,,,,,,,,,,,,,,,,,,,,,,,,,,,,,,,,,,,,,,,,,,,,,,,,,,,,,,,,,,,,,,,,,,,
{613}3,,,,,,,,,,,,,,,,,,,,,,,,,,,,,,,,,,,,,,,,,,,,,,,,,,,,,,,,,,,,,,,,,,,
{649}7,,,,,,,,,,,,,,,,,,,,,,,,,,,,,,,,,,,,,,,,,,,,,,,,,,,,,,,,,,,,,,,,,,,,,,,8,,,,,,,,,,,,,,,,,,,,,,,,,,,,,,,,,,,,,,,,,,,,,,,,,,,,,,,,,,,,,,,,,,,,,,,3,,,,,,,,,,,,,,,,,,,,,,,,,,,,,,,,,,,,,,,,,,,,,,,,,,,,,,,,,,,,,,,,,,,,,,,
{789}4,,,,,,,,,,,,,,,,,,,,,,,,,,,,,,,,,,,,,,,,,,,,,,
{1000},,,,,,,,,,,,,,,,,,,,,,,,,,,,,,,,,,,,,,,,,,,,,,,,,,,
{649}5,,,,,,,,,,,,,,,,,,,,,,,,,,,,,,,,,,,,,,,,,,,,,,,,,,,,,,,,,,,,,,,,,,,,,,,6,,,,,,,,,,,,,,,,,,,,,,,,,,,,,,,,,,,,,,,,,,,,,,,,,,,,,,,,,,,,,,,,,,,,,,,2,,,,,,,,,,,,,,,,,,,,,,,,,,,,,,,,,,,,,,,,,,,,,,,,,,,,,,,,,,,,,,,,,,,,,,,
{653}1,,,,,,,,,,,,,,,,,,,,,,,,,,,,,,,,,,,,,,,,,,,,,,,,,,,
{641}3?^6[2500:547],,,,,,,,,,,,,,,,,,,,
{16}3$,,,
{639}6?^1[2500:547],,,,,,,,,,,,,,,,,,,,
{16}6$,,,
{641}1?^4[2500:547],,,,,,,,,,,,,,,,,,,,
{500}1$,,,,,,,,,,,,,,,,,,,,,,,,,,,,,,,,,,,,,
{837},,,,,,,,,,,,,,,,,,,,,,,,,,,,,,,,,,,,,,,,,,,,,,,,,,,,,,,,,,,,,,,,,,,,,,,,,,,,,,,,,,,,,,,,,,,,,,,
{639}4?-8[2500:547],,,,,,,,,,,,,,,,,,,,
{16}4$,,,
{641}8?^5[5000:547],,,,,,,,,,,,,,,,,,,,
{617}8$,,,,,,,,,,,,,,,,,,,,,,,,,,,,,,,,,,,,,,,,,,,,,,,,,,,,,,,,,,,,,,,,,,,,,,,,,,,,,,,,,,,,,,,,,,,,,,,,,,,,,,,,,,,,,,,,,,,,,,,,,,,,,,,,,,,,,,,
{631}3,,,,,,,,,,,,,,,,,,,,,,,,,,,,,,,,,,,,,,,,,,,,,,,,,,,,,,,,,,,,,,,,,,,,,,,,,,,,,,,,,,,,,,,,,,,,,,,,,,,,,,,,,,,,,,,,,,,,,,,,,,,,,,,,,,,,,,,,,,
{649}8,,,,,,,,,,,,,,,,,,,,,,,,,,,,,,,,,,,,,,,,,,,,,,,,,,,,,,,,,,,,,,,,,,,,,,,
{625}1,,,,,,,,,,,,,,,,,,,,,,,,,,,,,,,,,,,,,,,,,,,,,,,,,,,,,,,,
{101},,
{649}7,,,,,,,,,,,,,,,,,,,,,,,,,,,,,,,,,,,,,,,,,,,,,,,,,,,,,,,,,,,,,,,,,,,,,,,
{613}2,,,,,,,,,,,,,,,,,,,,,,,,,,,,,,,,,,,,,,,,,,,,,,,,,,,,,,,,,,,,,,,,,,,
{649}8,,,,,,,,,,,,,,,,,,,,,,,,,,,,,,,,,,,,,,,,,,,,,,,,,,,,,,,,,,,,,,,,,,,,,,,1,,,,,,,,,,,,,,,,,,,,,,,,,,,,,,,,,,,,,,,,,,,,,,,,,,,,,,,,,,,,,,,,,,,,,,,5,,,,,,,,,,,,,,,,,,,,,,,,,,,,,,,,,,,,,,,,,,,,,,,,,,,,,,,,,,,,,,,,,,,,,,,
{613}4,,,,,,,,,,,,,,,,,,,,,,,,,,,,,,,,,,,,,,,,,,,,,,,,,,,,,,,,,,,,,,,,,,,
{649}6,,,,,,,,,,,,,,,,,,,,,,,,,,,,,,,,,,,,,,,,,,,,,,,,,,,,,,,,,,,,,,,,,,,,,,,
{653}3,,,,,,,,,,,,,,,,,,,,,,,,,,,,,,,,,,,,,,,,,,,,,,,,,,,
{639}5?-1[2500:547],,,,,,,,,,,,,,,,,,,,
{827}5$,,,,,,,,,,,,,,,,,,,,,,,,,,,,,,,,,,,,,,,,,,,,,,,,,,,,,,,,,,,,,,,,,,,,,,,,,,,,,,,,,,,,,,,
{238},
{613}4,,,,,,,,,,,,,,,,,,,,,,,,,,,,,,,,,,,,,,,,,,,,,,,,,,,,,,,,,,,,,,,,,,,
{844}5h[1883:412],,,,,,,,,,,,,,,,,,,,,,,,,,,,,,,,,,,,,,,,,,,,,,,,,,,,,,,,,,,,,,,,,,,,,,,,,,,,,,,,,,,,,,,,,,,,,,,,,,,,,,,,,,,,,,,,,,,,,,,,,,,,,,,,,,,,,,,,,,,,,,,,,,,,,,,,,,,,,,,,,,,,,,,,,,,,,,,,,,,,,,,,,,,,,,,,,,,,,,,,,,,,,,,,,,,,,,,,,,,,,,,,,,,,,,,,,,,,,,,,,,,,,,,,,,,,,,,,,,,,,,,,,,,,,,,,,,,,,
{585}6/2,,,,,,,,,,,,,,,,,,,,,,,,,,,,,,,,
{989}7/3,,,,,,,,,,,,,,,,,,,,,,,,,,,,,,,,,,,,,,,,,,,,,,,,,,,,,,
{649}8/4,,,,,,,,,,,,,,,,,,,,,,,,,,,,,,,,,,,,,,,,,,,,,,,,,,,,,,,,,,,,,,,,,,,,,,,5,,,,,,,,,,,,,,,,,,,,,,,,,,,,,,,,,,,,,,,,,,,,,,,,,,,,,,,,,,,,,,,,,,,,,,,6,,,,,,,,,,,,,,,,,,,,,,,,,,,,,,,,,,,,,,,,,,,,,,,,,,,,,,,,,,,,,,,,,,,,,,,
{613}3,,,,,,,,,,,,,,,,,,,,,,,,,,,,,,,,,,,,,,,,,,,,,,,,,,,,,,,,,,,,,,,,,,,
{87}7,
{143},,,,,,,,,,,,,,
{649}2,,,,,,,,,,,,,,,,,,,,,,,,,,,,,,,,,,,,,,,,,,,,,,,,,,,,,,,,,,,,,,,,,,,,,,,8,,,,,,,,,,,,,,,,,,,,,,,,,,,,,,,,,,,,,,,,,,,,,,,,,,,,,,,,,,,,,,,,,,,,,,,
{613}1,,,,,,,,,,,,,,,,,,,,,,,,,,,,,,,,,,,,,,,,,,,,,,,,,,,,,,,,,,,,,,,,,,,
{649}3,,,,,,,,,,,,,,,,,,,,,,,,,,,,,,,,,,,,,,,,,,,,,,,,,,,,,,,,,,,,,,,,,,,,,,,4,,,,,,,,,,,,,,,,,,,,,,,,,,,,,,,,,,,,,,,,,,,,,,,,,,,,,,,,,,,,,,,,,,,,,,,5,,,,,,,,,,,,,,,,,,,,,,,,,,,,,,,,,,,,,,,,,,,,,,,,,,,,,,,,,,,,,,,,,,,,,,,
{613}6,,,,,,,,,,,,,,,,,,,,,,,,,,,,,,,,,,,,,,,,,,,,,,,,,,,,,,,,,,,,,,,,,,,
{649}2,,,,,,,,,,,,,,,,,,,,,,,,,,,,,,,,,,,,,,,,,,,,,,,,,,,,,,,,,,,,,,,,,,,,,,,
{369}1,,,,,,,,,,
{887},,,,,,,,,,,,,,,,,,,,,,,,,,,,,,,,,,,,,,,,,,,,,,,,,,,,,,,,,,,,,,,,,,,,,,,,,
{649}6,,,,,,,,,,,,,,,,,,,,,,,,,,,,,,,,,,,,,,,,,,,,,,,,,,,,,,,,,,,,,,,,,,,,,,,
{613}5,,,,,,,,,,,,,,,,,,,,,,,,,,,,,,,,,,,,,,,,,,,,,,,,,,,,,,,,,,,,,,,,,,,
{649}4,,,,,,,,,,,,,,,,,,,,,,,,,,,,,,,,,,,,,,,,,,,,,,,,,,,,,,,,,,,,,,,,,,,,,,,3,,,,,,,,,,,,,,,,,,,,,,,,,,,,,,,,,,,,,,,,,,,,,,,,,,,,,,,,,,,,,,,,,,,,,,,7,,,,,,,,,,,,,,,,,,,,,,,,,,,,,,,,,,,,,,,,,,,,,,,,,,,,,,,,,,,,,,,,,,,,,,,
{653}8,,,,,,,,,,,,,,,,,,,,,,,,,,,,,,,,,,,,,,,,,,,,,,,,,,,
{641}1?^4[5000:547],,,,,,,,,,,,,,,,,,,,
{617}1$,,,,,,,,,,,,,,,,,,,,,,,,,,,,,,,,,,,,,,,,,,,,,,,,,,,,,,,,,,,,,,,,,,,,,,,,,,,,,,,,,,,,,,,,,,,,,,,,,,,,,,,,,,,,,,,,,,,,,,,,,,,,,,,,,,,,,,,
{726}1,,,,,,,,,,,,,,,,,,,,,,,,,,,,,,,
{113},,,,
{639}8?q5[5000:547],,,,,,,,,,,,,,,,,,,,
{631}8$,,,,,,,,,,,,,,,,,,,,,,,,,,,,,,,,,,,,,,,,,,,,,,,,,,,,,,,,,,,,,,,,,,,,,,,,,,,,,,,,,,,,,,,,,,,,,,,,,,,,,,,,,,,,,,,,,,,,,,,,,,,,,,,,,,,,,,,,,,
{653}8,,,,,,,,,,,,,,,,,,,,,,,,,,,,,,,,,,,,,,,,,,,,,,,,,,,
{639}1?p4[5000:547],,,,,,,,,,,,,,,,,,,,
{631}1$,,,,,,,,,,,,,,,,,,,,,,,,,,,,,,,,,,,,,,,,,,,,,,,,,,,,,,,,,,,,,,,,,,,,,,,,,,,,,,,,,,,,,,,,,,,,,,,,,,,,,,,,,,,,,,,,,,,,,,,,,,,,,,,,,,,,,,,,,,
{422}1,,,,,,,,,,,,,,,,,,,,,,,,,,,,,,,,,
{641}8?^5[5000:549],,,,,,,,,,,,,,,,,,,,
{617}8$,,,,,,,,,,,,,,,,,,,,,,,,,,,,,,,,,,,,,,,,,,,,,,,,,,,,,,,,,,,,,,,,,,,,,,,,,,,,,,,,,,,,,,,,,,,,,,,,,,,,,,,,,,,,,,,,,,,,,,,,,,,,,,,,,,,,,,,
{789}8,,,,,,,,,,,,,,,,,,,,,,,,,,,,,,,,,,,,,,,,,,,,,,
{1000},,,,,,,,,,,,,,,,,,,,,,,,,,,,,,,,,,,,,,,,,,,,,,,,,,,
{649}1,,,,,,,,,,,,,,,,,,,,,,,,,,,,,,,,,,,,,,,,,,,,,,,,,,,,,,,,,,,,,,,,,,,,,,,7,,,,,,,,,,,,,,,,,,,,,,,,,,,,,,,,,,,,,,,,,,,,,,,,,,,,,,,,,,,,,,,,,,,,,,,2,,,,,,,,,,,,,,,,,,,,,,,,,,,,,,,,,,,,,,,,,,,,,,,,,,,,,,,,,,,,,,,,,,,,,,,
{613}6,,,,,,,,,,,,,,,,,,,,,,,,,,,,,,,,,,,,,,,,,,,,,,,,,,,,,,,,,,,,,,,,,,,
{649}3,,,,,,,,,,,,,,,,,,,,,,,,,,,,,,,,,,,,,,,,,,,,,,,,,,,,,,,,,,,,,,,,,,,,,,,5,,,,,,,,,,,,,,,,,,,,,,,,,,,,,,,,,,,,,,,,,,,,,,,,,,,,,,,,,,,,,,,,,,,,,,,2,,,,,,,,,,,,,,,,,,,,,,,,,,,,,,,,,,,,,,,,,,,,,,,,,,,,,,,,,,,,,,,,,,,,,,,
{613}8,,,,,,,,,,,,,,,,,,,,,,,,,,,,,,,,,,,,,,,,,,,,,,,,,,,,,,,,,,,,,,,,,,,
{500}3,,,,,,,,,,,,,,,,,,,,,,,,,,,,,,,,,,,,,
{113},,,,
{649}7,,,,,,,,,,,,,,,,,,,,,,,,,,,,,,,,,,,,,,,,,,,,,,,,,,,,,,,,,,,,,,,,,,,,,,,4,,,,,,,,,,,,,,,,,,,,,,,,,,,,,,,,,,,,,,,,,,,,,,,,,,,,,,,,,,,,,,,,,,,,,,,
{653}6,,,,,,,,,,,,,,,,,,,,,,,,,,,,,,,,,,,,,,,,,,,,,,,,,,,
{641}3?-6[2500:547],,,,,,,,,,,,,,,,,,,,
{16}3$,,,
{639}6?-1[2500:547],,,,,,,,,,,,,,,,,,,,
{16}6$,,,
{641}1?-4[2500:547],,,,,,,,,,,,,,,,,,,,
{16}1$,,,
{87}4?-8[2500:547],
{101},,
{16}4$,,,
{641}8?-4[5000:547],,,,,,,,,,,,,,,,,,,,
{617}8$,,,,,,,,,,,,,,,,,,,,,,,,,,,,,,,,,,,,,,,,,,,,,,,,,,,,,,,,,,,,,,,,,,,,,,,,,,,,,,,,,,,,,,,,,,,,,,,,,,,,,,,,,,,,,,,,,,,,,,,,,,,,,,,,,,,,,,,
{631}3,,,,,,,,,,,,,,,,,,,,,,,,,,,,,,,,,,,,,,,,,,,,,,,,,,,,,,,,,,,,,,,,,,,,,,,,,,,,,,,,,,,,,,,,,,,,,,,,,,,,,,,,,,,,,,,,,,,,,,,,,,,,,,,,,,,,,,,,,,
{649}8,,,,,,,,,,,,,,,,,,,,,,,,,,,,,,,,,,,,,,,,,,,,,,,,,,,,,,,,,,,,,,,,,,,,,,,2,,,,,,,,,,,,,,,,,,,,,,,,,,,,,,,,,,,,,,,,,,,,,,,,,,,,,,,,,,,,,,,,,,,,,,,
{827}7,,,,,,,,,,,,,,,,,,,,,,,,,,,,,,,,,,,,,,,,,,,,,,,,,,,,,,,,,,,,,,,,,,,,,,,,,,,,,,,,,,,,,,,
{238},
{613}3,,,,,,,,,,,,,,,,,,,,,,,,,,,,,,,,,,,,,,,,,,,,,,,,,,,,,,,,,,,,,,,,,,,
{649}6,,,,,,,,,,,,,,,,,,,,,,,,,,,,,,,,,,,,,,,,,,,,,,,,,,,,,,,,,,,,,,,,,,,,,,,4,,,,,,,,,,,,,,,,,,,,,,,,,,,,,,,,,,,,,,,,,,,,,,,,,,,,,,,,,,,,,,,,,,,,,,,7,,,,,,,,,,,,,,,,,,,,,,,,,,,,,,,,,,,,,,,,,,,,,,,,,,,,,,,,,,,,,,,,,,,,,,,
{613}1,,,,,,,,,,,,,,,,,,,,,,,,,,,,,,,,,,,,,,,,,,,,,,,,,,,,,,,,,,,,,,,,,,,
{649}6,,,,,,,,,,,,,,,,,,,,,,,,,,,,,,,,,,,,,,,,,,,,,,,,,,,,,,,,,,,,,,,,,,,,,,,2,,,,,,,,,,,,,,,,,,,,,,,,,,,,,,,,,,,,,,,,,,,,,,,,,,,,,,,,,,,,,,,,,,,,,,,5,,,,,,,,,,,,,,,,,,,,,,,,,,,,,,,,,,,,,,,,,,,,,,,,,,,,,,,,,,,,,,,,,,,,,,,
{653}3,,,,,,,,,,,,,,,,,,,,,,,,,,,,,,,,,,,,,,,,,,,,,,,,,,,
{641}6?-3[2500:547],,,,,,,,,,,,,,,,,,,,
{87}6$,
{125},,,,,,,,,,,,,,,,,,,,,,
{639}3?-8[2500:547],,,,,,,,,,,,,,,,,,,,
{16}3$,,,
{641}8?-5[2500:547],,,,,,,,,,,,,,,,,,,,
{16}8$,,,
{639}5?-1[2500:547],,,,,,,,,,,,,,,,,,,,
{16}5$,,,
{641}1?-5[5000:547],,,,,,,,,,,,,,,,,,,,
{337}1$,,,,,,,,,,,,,,,,,,,,,,,,,,,,,,,,,,,,,,,,,,,,,,
{887},,,,,,,,,,,,,,,,,,,,,,,,,,,,,,,,,,,,,,,,,,,,,,,,,,,,,,,,,,,,,,,,,,,,,,,,,
{631}6,,,,,,,,,,,,,,,,,,,,,,,,,,,,,,,,,,,,,,,,,,,,,,,,,,,,,,,,,,,,,,,,,,,,,,,,,,,,,,,,,,,,,,,,,,,,,,,,,,,,,,,,,,,,,,,,,,,,,,,,,,,,,,,,,,,,,,,,,,
{649}7,,,,,,,,,,,,,,,,,,,,,,,,,,,,,,,,,,,,,,,,,,,,,,,,,,,,,,,,,,,,,,,,,,,,,,,2,,,,,,,,,,,,,,,,,,,,,,,,,,,,,,,,,,,,,,,,,,,,,,,,,,,,,,,,,,,,,,,,,,,,,,,6,,,,,,,,,,,,,,,,,,,,,,,,,,,,,,,,,,,,,,,,,,,,,,,,,,,,,,,,,,,,,,,,,,,,,,,
{613}3,,,,,,,,,,,,,,,,,,,,,,,,,,,,,,,,,,,,,,,,,,,,,,,,,,,,,,,,,,,,,,,,,,,
{649}8,,,,,,,,,,,,,,,,,,,,,,,,,,,,,,,,,,,,,,,,,,,,,,,,,,,,,,,,,,,,,,,,,,,,,,,1,,,,,,,,,,,,,,,,,,,,,,,,,,,,,,,,,,,,,,,,,,,,,,,,,,,,,,,,,,,,,,,,,,,,,,,
{726}6,,,,,,,,,,,,,,,,,,,,,,,,,,,,,,,
{15},
{613}3,,,,,,,,,,,,,,,,,,,,,,,,,,,,,,,,,,,,,,,,,,,,,,,,,,,,,,,,,,,,,,,,,,,
{649}7,,,,,,,,,,,,,,,,,,,,,,,,,,,,,,,,,,,,,,,,,,,,,,,,,,,,,,,,,,,,,,,,,,,,,,,2,,,,,,,,,,,,,,,,,,,,,,,,,,,,,,,,,,,,,,,,,,,,,,,,,,,,,,,,,,,,,,,,,,,,,,,5,,,,,,,,,,,,,,,,,,,,,,,,,,,,,,,,,,,,,,,,,,,,,,,,,,,,,,,,,,,,,,,,,,,,,,,
{653}4,,,,,,,,,,,,,,,,,,,,,,,,,,,,,,,,,,,,,,,,,,,,,,,,,,,
{641}6?^3[2500:547],,,,,,,,,,,,,,,,,,,,
{16}6$,,,
{639}3?^8[2500:547],,,,,,,,,,,,,,,,,,,,
{161}3$,,,,,,,,,,,,,,,,,,,,,,,,,,,
{101},,
{641}8?^5[2500:547],,,,,,,,,,,,,,,,,,,,
{16}8$,,,
{639}5?-1[2500:547],,,,,,,,,,,,,,,,,,,,
{16}5$,,,
{641}1?^4[5000:547],,,,,,,,,,,,,,,,,,,,
{617}1$,,,,,,,,,,,,,,,,,,,,,,,,,,,,,,,,,,,,,,,,,,,,,,,,,,,,,,,,,,,,,,,,,,,,,,,,,,,,,,,,,,,,,,,,,,,,,,,,,,,,,,,,,,,,,,,,,,,,,,,,,,,,,,,,,,,,,,,
{631}6,,,,,,,,,,,,,,,,,,,,,,,,,,,,,,,,,,,,,,,,,,,,,,,,,,,,,,,,,,,,,,,,,,,,,,,,,,,,,,,,,,,,,,,,,,,,,,,,,,,,,,,,,,,,,,,,,,,,,,,,,,,,,,,,,,,,,,,,,,
{500}3,,,,,,,,,,,,,,,,,,,,,,,,,,,,,,,,,,,,,
{113},,,,
{649}6,,,,,,,,,,,,,,,,,,,,,,,,,,,,,,,,,,,,,,,,,,,,,,,,,,,,,,,,,,,,,,,,,,,,,,,2,,,,,,,,,,,,,,,,,,,,,,,,,,,,,,,,,,,,,,,,,,,,,,,,,,,,,,,,,,,,,,,,,,,,,,,
{613}7,,,,,,,,,,,,,,,,,,,,,,,,,,,,,,,,,,,,,,,,,,,,,,,,,,,,,,,,,,,,,,,,,,,
{649}4,,,,,,,,,,,,,,,,,,,,,,,,,,,,,,,,,,,,,,,,,,,,,,,,,,,,,,,,,,,,,,,,,,,,,,,5,,,,,,,,,,,,,,,,,,,,,,,,,,,,,,,,,,,,,,,,,,,,,,,,,,,,,,,,,,,,,,,,,,,,,,,2,,,,,,,,,,,,,,,,,,,,,,,,,,,,,,,,,,,,,,,,,,,,,,,,,,,,,,,,,,,,,,,,,,,,,,,
{613}7,,,,,,,,,,,,,,,,,,,,,,,,,,,,,,,,,,,,,,,,,,,,,,,,,,,,,,,,,,,,,,,,,,,
{649}3,,,,,,,,,,,,,,,,,,,,,,,,,,,,,,,,,,,,,,,,,,,,,,,,,,,,,,,,,,,,,,,,,,,,,,,
{625}6,,,,,,,,,,,,,,,,,,,,,,,,,,,,,,,,,,,,,,,,,,,,,,,,,,,,,,,,
{101},,
{649}1,,,,,,,,,,,,,,,,,,,,,,,,,,,,,,,,,,,,,,,,,,,,,,,,,,,,,,,,,,,,,,,,,,,,,,,
{653}8,,,,,,,,,,,,,,,,,,,,,,,,,,,,,,,,,,,,,,,,,,,,,,,,,,,
{641}3?^6[2500:547],,,,,,,,,,,,,,,,,,,,
{16}3$,,,
{639}6?q2[2500:547],,,,,,,,,,,,,,,,,,,,
{16}6$,,,
{641}2?q6[2500:547],,,,,,,,,,,,,,,,,,,,
{16}2$,,,
{639}6?^1[2500:547],,,,,,,,,,,,,,,,,,,,
{827}6$,,,,,,,,,,,,,,,,,,,,,,,,,,,,,,,,,,,,,,,,,,,,,,,,,,,,,,,,,,,,,,,,,,,,,,,,,,,,,,,,,,,,,,,
{887},,,,,,,,,,,,,,,,,,,,,,,,,,,,,,,,,,,,,,,,,,,,,,,,,,,,,,,,,,,,,,,,,,,,,,,,,
{641}1?-5[5000:547],,,,,,,,,,,,,,,,,,,,
{617}1$,,,,,,,,,,,,,,,,,,,,,,,,,,,,,,,,,,,,,,,,,,,,,,,,,,,,,,,,,,,,,,,,,,,,,,,,,,,,,,,,,,,,,,,,,,,,,,,,,,,,,,,,,,,,,,,,,,,,,,,,,,,,,,,,,,,,,,,
{16}3b,,,
{641}6?^3[2500:547],,,,,,,,,,,,,,,,,,,,
{16}6$,,,
{639}3?p7[2500:547],,,,,,,,,,,,,,,,,,,,
{16}3$,,,
{641}7?p3[2500:547],,,,,,,,,,,,,,,,,,,,
{87}7$,
{125},,,,,,,,,,,,,,,,,,,,,,
{639}3?^8[2500:547],,,,,,,,,,,,,,,,,,,,
{16}3$,,,
{641}8?-4[5000:547],,,,,,,,,,,,,,,,,,,,
{617}8$,,,,,,,,,,,,,,,,,,,,,,,,,,,,,,,,,,,,,,,,,,,,,,,,,,,,,,,,,,,,,,,,,,,,,,,,,,,,,,,,,,,,,,,,,,,,,,,,,,,,,,,,,,,,,,,,,,,,,,,,,,,,,,,,,,,,,,,
{631}6b,,,,,,,,,,,,,,,,,,,,,,,,,,,,,,,,,,,,,,,,,,,,,,,,,,,,,,,,,,,,,,,,,,,,,,,,,,,,,,,,,,,,,,,,,,,,,,,,,,,,,,,,,,,,,,,,,,,,,,,,,,,,,,,,,,,,,,,,,,
{585}2,,,,,,,,,,,,,,,,,,,,,,,,,,,,,,,,1,,,,,,,,,,,,,,,,,,,,,,,,,,,,,,,,
{369}8,,,,,,,,,,
{471},,,,,,,,,,,,,
{585}7,,,,,,,,,,,,,,,,,,,,,,,,,,,,,,,,6,,,,,,,,,,,,,,,,,,,,,,,,,,,,,,,,5,,,,,,,,,,,,,,,,,,,,,,,,,,,,,,,,3,,,,,,,,,,,,,,,,,,,,,,,,,,,,,,,,
{989}2,,,,,,,,,,,,,,,,,,,,,,,,,,,,,,,,,,,,,,,,,,,,,,,,,,,,,,
{585}1,,,,,,,,,,,,,,,,,,,,,,,,,,,,,,,,8,,,,,,,,,,,,,,,,,,,,,,,,,,,,,,,,7,,,,,,,,,,,,,,,,,,,,,,,,,,,,,,,,6,,,,,,,,,,,,,,,,,,,,,,,,,,,,,,,,7,,,,,,,,,,,,,,,,,,,,,,,,,,,,,,,,8,,,,,,,,,,,,,,,,,,,,,,,,,,,,,,,,1,,,,,,,,,,,,,,,,,,,,,,,,,,,,,,,,
{989}2,,,,,,,,,,,,,,,,,,,,,,,,,,,,,,,,,,,,,,,,,,,,,,,,,,,,,,
{585}3,,,,,,,,,,,,,,,,,,,,,,,,,,,,,,,,4,,,,,,,,,,,,,,,,,,,,,,,,,,,,,,,,6,,,,,,,,,,,,,,,,,,,,,,,,,,,,,,,,7,,,,,,,,,,,,,,,,,,,,,,,,,,,,,,,,
{726}8,,,,,,,,,,,,,,,,,,,,,,,,,,,,,,,
{250},,,
{585}1,,,,,,,,,,,,,,,,,,,,,,,,,,,,,,,,2,,,,,,,,,,,,,,,,,,,,,,,,,,,,,,,,
{989}3,,,,,,,,,,,,,,,,,,,,,,,,,,,,,,,,,,,,,,,,,,,,,,,,,,,,,,
(202)
{1}4h[4:7]/8h[4:7],,
(200)
{8}2,3,,3,,4,3,,
{8},2,1,8,7,6,,6,
{8},5,6,,,,2b,,
{8}8,7,6,8,7,6,5,6,
{8}7,6,7,8,1,2,3,1,
{8}2,3,4,3,2,2,1,,
{8}3/7,7/3h[2:1],,5h[4:1],,,3h[4:1]/5h[2:1],,
{8},,,,2/6,2/6h[2:1],,4h[4:1],
{4},4h[4:1]/6h[2:1],,,
{8}5h[8:1]/7h[4:1],,,6h[8:1]/4h[4:1],,,
{983}1,,,,,,,,,,,,,,,,,,,,,,,,,,,,,,,,,,,,,,,,,
{625}2,,,,,,,,,,,,,,,,,,,,,,,,,,
{983}3,,,,,,,,,,,,,,,,,,,,,,,,,,,,,,,,,,,,,,,,,7,,,,,,,,,,,,,,,,,,,,,,,,,,,,,,,,,,,,,,,,,
{625}6,,,,,,,,,,,,,,,,,,,,,,,,,,
{983}5,,,,,,,,,,,,,,,,,,,,,,,,,,,,,,,,,,,,,,,,,
{983}2,,,,,,,,,,,,,,,,,,,,,,,,,,,,,,,,,,,,,,,,,
{625}3,,,,,,,,,,,,,,,,,,,,,,,,,,
{983}4,,,,,,,,,,,,,,,,,,,,,,,,,,,,,,,,,,,,,,,,,8,,,,,,,,,,,,,,,,,,,,,,,,,,,,,,,,,,,,,,,,,
{625}7,,,,,,,,,,,,,,,,,,,,,,,,,,
{983}6,,,,,,,,,,,,,,,,,,,,,,,,,,,,,,,,,,,,,,,,,1,,,,,,,,,,,,,,,,,,,,,,,,,,,,,,,,,,,,,,,,,
{625}2,,,,,,,,,,,,,,,,,,,,,,,,,,
{983}3,,,,,,,,,,,,,,,,,,,,,,,,,,,,,,,,,,,,,,,,,7,,,,,,,,,,,,,,,,,,,,,,,,,,,,,,,,,,,,,,,,,
{625}6,,,,,,,,,,,,,,,,,,,,,,,,,,
{983}5,,,,,,,,,,,,,,,,,,,,,,,,,,,,,,,,,,,,,,,,,
{8}2/4h[4:1],,3,5/4h[8:3],
{8},6,5,2/4h[4:1],,3,5/4h[4:1],,
{8}6h[4:1],,1-3[8:1]*-7[8:1],3V51[4:1]/7V51[4:1],,,,,
{16}2/8,3/7,4h[4:1]/6h[4:1],,,,,,3h[4:1]/5h[4:1],,,,,,2/6,,
{8}2/6,2/6,4/8V24[2500:573]*-6[8:1],2/6V48[4:1],,,,,
{16}3/7,2/6,1/5,4/8,1/5,2/6,3h[8:1]/7h[8:1],,,,3/7,,,,1/5V71[2500:573]*-3[8:1],,
{8}7/3V15[4:1],,,,,4h[8:1]/8h[8:1],,4/8,
{16},,8/4-2[8:1]*-6[8:1],,2V84[4:1]/6V84[4:1],,,,,,,,,,3/5,2/6,
{8}1h[4:1]/7h[4:1],,,2/8,2/8-4[8:1],,3,3,
{16}2,4,2,7,5,7,2,4,2,7,5,6,2,4,3,7,
{16}1,8,2,7,1,8,2,7,1b,2,3/7,6,2/5,3,4/8,7,
{16}1/6,2,3/7,6,2/5,3,4/8,7,1/6,2,3/7,6,2/5,3,4/8,7,
{16}1/6,2,3/7,6,2/5,3,4/8,7,1/6,2,3/7,6,1/5,2,3/8,7,
{16}6,4/5,3,2,8/1v4[4:1]*s5[4:1],1/8,1/8,1/8,,,,,,,,,
(220)
{8}2-5[8:1],7-4[8:1],2,7,,1,8,7<5[8:1],
{8}1,7,,2>4[8:1],8,2,7,6h[4:1],
{16}5,,5,,,,4b/7b,,,,3,4,5,6,7,8,
{16}1/5,4,3,2,1,4/8,3/7,2/6,1/5,,4<7[8:1]/8>3[8:1],,,,4/8,,
{8},,3/6,4-1[8:1]/5-8[8:1],,4/5,,2b/7b,
{16},,6,5,4,3,2,1,4/8,5,6,7,8,1/5,2/6,3/7,
{8}4/8,1<6[8:1],,1>4[8:1],,1-6[8:1],,1,
{16},,3,4,5,6,7,8,1/5,4,3,2,1,8,7,6,
{16}2/5,,3,4,3,,2/7,,6,5,6,,4,5,4,5,
{16}3/6,,7,8,7,,3/6,,2,1,2,,8,1,8,1,
{16}2/7,,6,5,6,5,7,,3,4,3,4,2,,1-4[8:1]/8,,
{8},1/8-3[8:1],,1-6[8:1]/8,,1b/8,,,
{8}4/6,4v3[8:1]/6,,6v7[8:1],,,,2/8,
{16}1,1,1,1,1,,,,,,7,,8,,7,,
{8}2,1<6[8:1],2,1>4[8:1],,1-6[8:1],,1-4[8:1],
{16},,1-7[8:1],,,,1,,2,3,4,5,6,7,8,1,
{1}2pp2[4:5]/6pp6[4:5],
{1},
{1}2>5[4:5]/6p7[4:5],
{1},
{1}5s1[4:5]/7<2[4:5],
{1},
{8}4/5,4/5,3/6,3/6,2/7,2/7,1/8,1/8,
{16}1,8,2,7,1,8,2,7,1,8,2,7,1-5[8:1]*s5[8:1],8,2,7,
(244)
{1},
{1},
(240)
{8}1h[1:1]/8,,7,7,,6,,6,
{8},6,,5,,5,,5,
{24}3h[1:1],,,6,,,,,,6,,,,,,,7,,,,7,,,,
{6}7,7,7,7,7,7,
{8}4h[1:1]/6,,5,5,,6,,6,
{8},6,,7,,7,,8,
{8}5h[1:1]/8,8,,7,,6,6,,
{1},
{4}3V51[1:1],6,7h[16:1],8,
{4}1V35[1:1],8,7h[16:1],6,
{4}5V37[1:1],6,7h[16:1],8,
{4}7V15[1:1],6,6h[16:1],6,
{4}5V31[1:1],6,7h[16:1],8,
{4}1s5[1:1],8,7h[16:1],6,
{1}6h[1:1],
{1}5s1[2:1],
{8}4/5,,3,4,5,4,3,2,
{16}1/8,,7,,1/8,,2,,1/8,7,6,,2,,2,,
{16}8,7,6,5,1,2,3,4,5,6,7,8,1/7,2/6,3/5,,
{16}1,2,3,4,8,7,6,5,4,3,2,1,2/8,3/7,4/6,,
{8}2/7,,6,5,4,5,6,7,
{16}1/8,,2,,1/8,,7,,1/8,2,3,,7,,7,,
{8}2,1-6[8:1],2,1-4[8:1],,1,,1,
{16}3,4,3,4,3,,2/5,,1,8,1,8,2b/7b,,,,
{8}3>8[8:1]/4,,7,7,5/6<1[8:1],,3,3,
{16}4-8[8:1]/5,,,,7,,7,,1/7,2/6,3/5,,3/5,,,,
{16}4/5,3,2,1,7/8,1,2,3,4/5,6,7,8,1/2,8,7,6,
{16}4/5,3,2,1,7/8,1,2,3,4/5,6,7,8,1/3,,,,
{8}2-7[8:1]/4,,5,5,6-3[8:1]/8,,1,1,
{16}2<7[8:1]/4,,,,5,,5,,5,4/6,3/7,,3/7,,,,
{8}1/6,3h[4:1]/4,,8,5/6,,3/4,,
{32}2/7,,,,2/7,,,,3/6,,,,3/6,,,,4/5h[4:1],,,,,,,,4,3,2,1,8,7,6,5,
{8}4b/8b,,3/6,,5/6,,4/6,6,
{8}5/6,,2/6,,5/6,,4/6,6,
{8}6/8,,1/6,,5/6,,3/6,6,
{12}5/6,,,4/6,,,3/6,5,4,3,4,5,
{8}3/6,,3/6,,3/4,,3/5,3,
{8}1/3,,3/7,,3/4,,3/6,3,
{8}3/4,,2/3,,3/4,3,3/6,,
{8}3/6,3/6,2/7,2/7,1/8,1/8,2b/7b,,
{16}1/5b,,,,2/7,,6,5,6,,4,5,4,5,4,,
{16}3/6,,2,1,2,,3/6,,7,8,7,,1,8,1,8,
{16}2/7,,3,4,3,4,2,,6,5,6,5,7,,1/8,,
{16}2,4,3,7,5,6,3,4,1,8,1,8,2b/7b,,,,
{8}1/5,1/5,3/6,3/6,4/8,4/8,2,2,
{8}1/2,2/3,3/4,4/5,4/5,3/6,2/7,2/7,
{16}2/7,3,4,5,6,7,8,1,2/5,4,3,2,1,8,7,6,
{32}1b/5,2,3,4,5,6,7,8,1,2,3,4,5,6,7,8,1/6b,5,4,3,2,1,8,7,6b,5,4,3,2,1,8,7,
{1}2bz6[8:11]/6,
{1},
{1}3h[4:1]/7z3[8:11],
{1},
{1}1z5[4:5]*z5[4:5]/5h[96:23],
{4},,,3/4-8[8:5]*-8[8:5],
{1},
{16}1,8,1,8,1,8,1,8,1,8,1,8,1,8,1,8,
{16}2,8,1,8,1,8,1,8,2,8,1,8,1,8,1,8,
{16}2,7,1,8,2,7,1,8,1,8,1,8,2,8,1,8,
{16}1,7,1,8,2,8,1,7,1,8,2,8,1s5[8:3]*v3[8:3],7,1,8,
(231.7)
{1},
(220)
{8}6,6,6,4,4,4,5,5,5h[8:2],3h[8:1],,,
3,3,3,5,5,5,4,4,4h[8:2],6h[8:1],,,
2,2,4,3,3,3,7,7,5,6,6,6,
2,2,4,3,3,3,6,6,4,5,5,5,
2h[8:2],6,6,3h[8:2],5,5,
4-2-8-2-4[4:5],6,6,,7,7,,6,6,,5,5,,
6,4,5,2,2,7h[8:2],3,3,6h[8:2],4,4,5-7-1-7-5[4:5],3,3,,2,2,,3,3,,4,4,,3,3,,
{8}4h[8:2]/5<4b[4:3],,,,,,,,,,
{8}3,4,5,6,5,4,3,4,5,6,5,4h[8:2],6h[8:2],,3,4,5,6,5,4,3,4,5,6,5,4h[8:2],6h[8:2],,
2,3,4,5,4,5,4/6,7,5,6,5,4h[8:2],6h[8:2],,
2,3,4,5,4,5,4/6,7,5,6,5,4,3/6,5,3/6,4,
5h[8:2],4,3h[8:2],4,5,6h[8:2],4,5,7h[8:2],6,5,4h[8:2],6,5,3,4,3,
2h[8:2],3,4,5h[8:2],3,4,6h[8:2],4,3,2b/5b,1,8,7,7h[8:2],5h[8:2],,6,
4,3,5,6,7,7,{16}1,8,1,8,{8}1,2,2h[8:2],4h[8:2],,3,5h[8:1],4,3/6,3/6,,,,,
{8}2b-4[8:1],1,2,6-8[8:1],5>3-6b[4:1],6,5,,8-4[8:1],8,1<6[8:1],1,5-8[8:1],5,3,2,1-3[8:1],4,1,
8-6[8:1],5>3-8b[8:2],8,5,,6,6<2[8:2],,2>6[8:2],,6,,2,2h[8:2],,4,4h[8:2],,6,6v1[8:1],,
8,8h[8:2],,1,,3/4,3/4-2[8:1]*-6[8:1],,4,,8,8h[8:2],,5<8v3[8:2],4,3,,1,1w5b[8:1],,1,,8x/2x,,
{4}4b/6b,
{16}5h[16:1]/7h[16:1],,5h[16:1]/7h[16:1],,{8}8v2^1-5[16:9]/4,,
{16}3h[16:1],,3h[16:1],,{8}3,,
{16}4h[16:1],,4h[16:1],,{8}4,,
{16}3h[16:1]/5h[16:1],,3h[16:1]/5h[16:1],,{8}2v8^1-5[16:9]/6,,
{16}7h[16:1],,7h[16:1],,{8}7,,
{16}6h[16:1],,6h[16:1],,{8}6v8^7-3[16:9],,
{16}5h[16:1],,5h[16:1],,{8}5,,
{16}4h[16:1],,4h[16:1],,{8}4bv2^3-6[16:9],,
{16}1h[16:1],,1h[16:1],,{8}1,,
{16}7h[16:1],,7h[16:1],,{8}7v5^6-1[16:9],,
{16}4h[16:1],,4h[16:1],,{8}4,,2,,
8/3,3,3,4/6,6,6,7/3,3,3,8/2,8/2,8/2,
{24}8/2,3,4,5,6,7,8,1,2,3,4,5/6,
{8},,,,
(210)
{16}2bxh[4:1],,,,{8}7,7q5<1[2:1],,5,5h[2:1],,,,2<5[4:1],,5,4,3,,1h[4:1],,3,3<7[4:1],,2,2,,{32}8b/D2,A2,D3,,{8},7,{32}7b/A5,D5,A4,,{8},2,1,8,7h[4:1]/3,,2,2p4>8[2:1],,4,4h[2:1],,,,7>4[4:1],,4,5,6,,8h[4:1],,5,5-1[8:1],,7,7h[4:1],,{12}8x,7,6,7,6,7,6,7,6,7,6,7,{32}8b,1x,2x,3x,4xh[4:1],,,,
{8}7,7,,6<4[8:3],8h[4:1],,,,1,,5,6,7,8,2h[8:3],,3,7h[8:3],,6p5[8:3],1h[4:1],,,,2h[4:1],,4,,{4}3-8[8:1]/2-6[8:1],2x/3x,{8}7,75,,3,35,,{32}6bh[2:1]/A1,D1,A8,D8,A7,D7,,D6,A5,D5,A4,D4,,,,,{8}1,2,8,7,6/B2,,1,1/B7,,8,8,8/E4,,1,1/E6,,
8/E5,,7,6,5xh[4:1]/3,2,2,6h[4:1]/1,2>4[8:1],,7h[4:1],,,8h[4:1]/5,4,4,1h[4:1]/3,4<6[8:1],,2h[4:1],,,3h[4:1]/7,6,6,5/4h[4:1],6<8[8:1],,5h[4:1],,,6h[4:1]/2,1,1,7h[4:1]/8,1>3[8:1],,8h[4:1],,,1h[4:1]/5,4,4,2h[4:1]/3,4<6[8:1],,3h[4:1],,,
4h[4:1]/8,7,7,5h[4:1]/6,7>1[8:1],,6h[4:1],,,7h[4:1]/3,2,2,8h[4:1]/1,2pp4[8:1],,1,,38,,{32}7h[1:0],B7,,,{8}4,4,{32}2h[1:0],B2,,,{8}4,4,{32}8h[1:0],B8,,,{8}4,4,{32}1h[1:0],B1,,,{8}4,4,8,6,4,2,{32}3h[1:0],B3,,,{8}1,1,{32}6h[1:0],B6,,,{8}1,1,{32}4h[1:0],B4,,,{8}1,1,{32}5h[1:0],B5,,,{8}1,1,{16}2-7[8:1]/8-5[8:1],73,46,,,,,,6x,8,6,8,6,,3x,5,3,5,3,,1x,4,1,4,1,,3x,8,3,8,3,,1x/2x,8,7,6,5x/8x,1,2,3,7bx,5,7,5,7,5,8,5,8,5,8,5,1,5,1,5,1,5,2,5,2,5,2,5,
{32}3b,2,1,8,7,6,5,4,3b,,,,,,,,
(180)
{4}
2h[4:6]/4h[4:6],,,,,,,2/4,
3h[4:6]/5h[4:6],,,,,,,{8}3/5,3/5,
{4}4h[4:5]/6h[4:5],,,,,,4/6,{8}5/7,5/7,
{4}5h[4:3]/7h[4:3],,,,
(181)
7xz3[8:3]/8xs4[8:3],,,,
(180)
{24}
1x/8h[8:1],2,3,4,,,,,,
2x/8h[8:1],3,4,5,,,,,,
3x/8h[2:1],4,5,6V42[4:1],,,,,,
{8},,,,3x/7x,3x/7x,,
{24}
8x/1h[8:1],7,6,5,,,,,,
7x/1h[8:1],6,5,4,,,,,,
6x/1h[4:1],5,4,3q8[4:1],,,,,,
{8},,,,2x/6x,2x/6x,,
{24}
8x/1h[8:1],7,6,5,,,,,,
7x/1h[8:1],6,5,4,,,,,,
6x/1h[2:1],5,4,3V57[4:1],,,,,,
{8},,,,2x/6x,2x/6x,,
{24}
1x/8h[8:1],2,3,4,,,,,,
2x/8h[8:1],3,4,5,,,,,,
3x/8h[8:1],4,5,6w2[8:1],,,,,,
{8},,,,4b/8b,4b/8b,,
{16}2/5,,3,4,3,,2/5,,3,4,3,,2/5,,3,,
{16}4/7,,6,5,6,,4/7,,6,5,6,,4/7,,6,,
{16}3/8,,2,1,2,,3/8,,2,1,2,,3/8,,2,,
{16}1/6,,7,8,7,,1/6,,7,8,7,,1/6,,2,,
{16}4/5,,3,4,2,,4/5,,6,5,7,,4/5,,3/6,,
{16}4/5,,3,4,1,,4/5,,6,5,8,,4/5,,3/6,,
{16}2,1,2,1,2,,6,5,6,5,6,,7/8,,3/4,,
{16}2,1,2,1,4,7,4,7,5,6,5,,3b-6[8:1]/8b-5[8:1],,,,
{1},,,,,,
(274)
{1},,,,,,,
{4}
5,5,5,45,
{8}
4,4,6,3,5,5,3,4,2h[4:1],,
{12}
4,3,4,3h[4:1],,,1,2,1,
{8}
2,8,3,7,4,6,5,7,4,6,3,5,2-4[8:1],,1,,
7,7,5,6,4,4,5,3,4v5[8:1],,2,,8v1[8:1],,7,,
6-8[8:1],,2,2-4[8:1],,1,1,,7-5[8:1],8,
{4}
7-1v3[8:3],,,
{8}
5,5,3,4,2,2,4,3,1h[4:1],,
{12}
2,8,2,8h[4:1],,,6,7,6,
{8}
7,5,8,4,1,3,4,2,5,1,6,8,7-5[8:1],,4,,
2,2,1,3,8,8,1,7,8v1[8:1],,6,,4v5[8:1],,3,,
2-4[8:1],,6,6-8[8:1],,5,5,,2,2,8,8,
{8}
2,,13,,
{8}
2h[16:1]/4h[16:1],,,4h[16:1]/6h[16:1],,,4h[16:1]/6h[16:1],,5,5,5,5,5,5,5,5,
4h[16:1]/6h[16:1],,,2h[16:1]/4h[16:1],,,2h[16:1]/4h[16:1],,3,3,3,3,3,3,3,3,
2h[16:1]/4h[16:1],,,1h[16:1]/7h[16:1],,,1h[16:1]/7h[16:1],,8,8,8,8,8,8,8,8,
{12}
1h[2:1]/7,6,5,4,3,2,,8,7,6,5,4h[3:1],1,2,3,,5,6,7,8,1,2,3,4,
{8}
5h[16:1]/6h[16:1],,,1h[16:1]/8h[16:1],,,2h[16:1]/4h[16:1],,3,3,3,3,3,3,3,3,
2h[16:1]/4h[16:1],,,4h[16:1]/6h[16:1],,,6h[16:1]/8h[16:1],,7,7,7,7,7,7,7,7,
78,8,8,8,8,8,8,8,18,1,1,1,1,1,1,1,2,2,2,2,3,3,3,3,4,4,4,4,5,5,5,5-1[237.7685950413#20:65],
(210)
{2},,,,,,,
(240)
{8}
4/5h[4:1],4,4,6,6,6,5,5,5,6,6,6,56,,
5/4h[4:1],5,5,3,3,3,4,4,4,3,3,3,24,,
(250)
{8}
4/3h[4:1],4,4,5,5,5,4,4,4,6,6,6,57,,
6/7h[4:1],6,6,5,5,5,4,4,4,3,3,3,24,,
(270)
{16}
1b/2h[4:1],8,7,6,,,8b/1h[4:1],7,6,5,,,7b/8h[4:1],6,5,4,,,
{8}
1h[8:1],4h[8:1],3h[8:1],6h[8:1],,
(285)
{16}
8b/7h[4:1],1,2,3,,,1b/8h[4:1],2,3,4,,,2b/1h[4:1],3,4,5,,,
{8}
8h[8:1],5h[8:1],6h[8:1],3h[8:1],,
(300)
{8}
8b,7,6,5,4,3,
{12}
2b,3,4,5,6,7,8,1,2,3,4,5,
(315)
{16}
8b,7,6,5,4,3,2,1,
{24}
8,7,6,5,2b,3,4,5,6,7,8,1,
A2/D3,A3/D4,A4/D5,A5/D6,A6/D7,A7/D8,D1/A8,A1/D2,
2bx,3bx,4bx,5bx,6bx,7bx,8bx,1bx,2bx,3bx,
(270)
{100}4b>4>4>3-1<8-6>5-3>2-8<7-5>4-1[2:13],,,,,,,,,,,,,{1},,,,,,,
{4},,{8},,,
(230)
{1}
5h[2:3]/6>5-8<7-2[4:5],,3hx[2:7]/4>3-6>5-8[4:5],,
{8}
B5/B6/E6/D6,,,E4,,,B1/B2/E2/E3,,,B7/B8/D8,,,
{2}
B5/A5/B6/E6,4h[4:7]/C,,6h[4:1],5h[4:1],
{4}
2bh[4:1]/6,5h[4:1],4h[4:1],
{8}
6,6,4,5,5,4,
{4}
3v4[4:1],5,6bh[4:1],4h[4:1],5h[4:1],
{8}
3,3,5,4,4,5,
{4}
6v5[4:1],4,2bh[4:1],4h[4:1],3h[4:1],
{8}
5,5,3,4,4,3,
{4}
2v4[4:1],5,6p2<8b[16:9],5,4,3,3h[4:3]/7h[2:1],,,8b,
{8}
4/1-5[8:1],1,7,7h[4:1],,4,4,6/2h[4:1],,8,37,37,
{16}
6,6,4,4,5,5,3,3,
{8}
4<7[8:1],1,2,2h[4:1],,8,8,5/7h[4:1],,1,26,26,
{16}
3,3,5,5,4,4,6,,
3b/7b,,2,1,2,,38,,2,1,2,,37,,2,1,2,,36,,1,8,1,
8,1,2,3,4,56,7,8,1,
3,4,3,4,3h[8:1],,7,5,6,5,7h[8:1],,2,4,3,4,2h[8:1],,
5,3,5,3,5,3,4,4,5,3,4,4,5,3,
{8}
6b-8[8:1],4-6[8:1],6,4,
{16}
1,2,3,4,58,1,2,3,
{8}
7-5[8:1],5-1[8:1],7,2,
{16}
2,3,4,5,26,1,8,7,
{8}
3b-1[8:1],5-3[8:1],3,5,
{16}
8,7,6,5,14,8,7,6,
{8}
2-4[8:1],4-8[8:1],2,7,
{16}
7,6,5,4,38,1,2,3,
4/8b,,6,5,6,,15,,3,4,2,,56,,7,8,7h[8:1],,
2,8,2,8,2,8,1,1,2,8,1,1,2,8,
3,7,3,7,4,6,4,6,3,5,3,5,2,6,2,6,
{8}
1h[16:1],2/8h[16:1],7/3h[16:1],4/6h[16:1],
8h[16:1],7/1h[16:1],2/6h[16:1],5/3h[16:1],
{1}
4b-1>2-7>8-5<6-3<4[2:7]/6bh[4:15],,,,
{8}
6,6,5/7h[8:3],,,5,46,,3,3,4/2h[8:3],,,4,35,,
6,6,4/7h[8:3],,,8,
{1}
8z4[2:1],
{8}
35,,6,6,5,7h[4:1],,
{16}
4,6,4,6,
{8}
4,35,3,4,2h[4:1],,
{16}
5,3,5,3,
{8}
5,46,6,5,7h[4:1],,
{16}
5,6,4,6,
{8}
4,35,3,4,2h[4:1],,
{16}
4,3,5,3,
{8}
5,46,4h[16:1]/6h[8:1],,35,3h[8:1]/5h[16:1],,
46,4h[16:1]/6h[8:1],,45,4h[16:1]/5h[8:1],,
4h[8:1]/6h[16:1],,3h[8:1]/7h[16:1],,
28,2,34,2,17,7,56,4,3b/5b,35,26,26,17,17,
{16}
8,2,8,2,
(230)
{8}
1b<6[8:1],2,3,4>1[8:1],5,6,7<4[8:1],8,1,2<7[8:1],3,4,5h[16:1],5h[16:1],
(238)
{8}
5b<8[8:1],4,3,2>5[8:1],1,8,7>2[8:1],6,5,4<7[8:1],3,2,1b,,
(246)
{8}
2b-7[8:1],3,4,5-2[8:1],6,7,8-5[8:1],1,2,3-8[8:1],4,5,6h[16:1],6h[16:1],
(252)
{8}
6b-1[8:1],5,4,3-6[8:1],2,1,8-3[8:1],7,6,5-8[8:1],4,3,2b,,
(258)
{8}
6b>5-3[8:1],7,8,1<8-6[8:1],2,3,4>3-1[8:1],5,6,7<6-4[8:1],8,1,2h[16:1],2h[16:1],
(266)
{8}
2b>3-5[8:1],1,8,7>8-2[8:1],6,5,4<5-7[8:1],3,2,1,8,7,1/6bh[4:1],,
(288)
{16}
8b,1,2,3,8,1,2,3,8,1,2,3,8,1,2,3,
(298)
{16}
4x/8b,7,6,5,8,7,6,5,8,7,6,5,8,7,6,5,
(308)
{20}
4x/8b,1,2,3,4,8,1,2,3,4,8,1,2,3,4,8,1,2,3,4,
(318)
{20}
5x/8b,7,6,5,4,8,7,6,5,4,8,7,6,5,4,8,7,6,5,4,
(339)
{4}
3>2-5>4-7<6-1<8-3[1:7]/7-4<5-2>3-8>1-6<7[1:7],
{1}
,,,,,,,,
E
