&title=ほおずき程度には赤い頭髪
&artist=Akhuta
&first=0.05
&des=你是什么小兽兽呀UWU
&lv_5=14
&inote_5=(174)
{16},,,,,,,,,,,,,,,,
45,,36,,E6,E5,E4,,2x,3x,7x,6x,3x,4x,6x,5x,
1h[16:1],6h[16:1],3h[16:1],8h[16:1],5h[16:1],7h[16:1],1h[16:1],6h[16:1],4h[16:1],8h[16:1],3h[16:1],5h[16:1],Cf,,,,
5-2[8:1]/8,,,7,,,6,,D2/E2/5h[8:1],,,D3/E3/6h[8:1],,,D4/E4/7,,
5-2[8:1]/8,,,7,,,6,,D5/E5/2h[8:1],,,D6/E6/3h[8:1],,,D7/E7/4,,
5-2[8:1]/8,,,7,,,6,,2h[8:1]/5h[8:1],,,3h[8:1]/6h[8:1],,,4/7,,
8h[8:1]/5,,4,6,4,6,4,,2,4,2,4,2,,1,,
4-7[8:1]/1,,,2,,,3,,D8/E8/4h[8:1],,,D7/E7/3h[8:1],,,D6/E6/2,,
4-7[8:1]/1,,,2,,,3,,D5/E5/7h[8:1],,,D4/E4/6h[8:1],,,D3/E3/5,,
4-7[8:1]/1,,,2,,,3,,7h[8:1]/4h[8:1],,,6h[8:1]/3h[8:1],,,5/2,,
3,4,3,6,5,6,3xb/7xb,,2x,2x,5x,5x,4x,4x,7x,7x,
2>5[8:1],,,1,2,,1,,8xh[8:1]/E6/D6,,,7h[8:1]/E5/D5,,,6/D4/E4,,
2>5[8:1],,,8,2,,8,,5xh[8:1]/D8/E8,,,4h[8:1]/D7/E7,,,3/D6/E6,,
2>5[8:1],,,7,2,,7,,8xh[8:1]/5xh[8:1],,,7h[8:1]/4h[8:1],,,6/3,,
2,5,2,5,3,6,3,6,4-8[8:1],7,4,7,4b,Cf,,,
7<4[8:1],,,8,7,,8,,1xh[8:1]/E4/D4,,,2h[8:1]/E5/D5,,,3/D6/E6,,
7<4[8:1],,,1,7,,1,,4xh[8:1]/D2/E2,,,5h[8:1]/D3/E3,,,6/D4/E4,,
7xh[8:1]/3xh[8:1],,,6xh[8:1]/2xh[8:1],,,1h[16:1]/5h[16:1],,8xh[8:1]/4xh[8:1],,,1xh[8:1]/5xh[8:1],,,2h[16:1]/6h[16:1],,
7,1b,4,8-4b[16:1],5b,3,8h[8:3],,,,,,,,,,
3>6[4:1],,,4,,,5,,5h[16:3],,,1h[16:3],,,7,8,
7h[16:3],,,3h[16:3],,,5,,5-8[8:1],,,,45,,,,
2^7[8:1],,,,7,,6-2[8:1],,,,2,,3,,4,,
75,,8,,24,,1,,{24}7h[4:1]/8,D7,D6,D5,D4,D3,{16}D2f,,,,
6<3[4:1],,,5,,,4,,4h[16:3],,,8h[16:3],,,2,1,
2h[16:3],,,6h[16:3],,,4,,4-1[8:1],,,,54,,,,
78,,6,,45,,3,,12,,8,1,8,1,8,,
2,6,4,7,3,5,1,8,{48}A2,D3,A3,D4,A4,D5,A5,D6,A6,D7,A7,D8,{16}1b,,,,
8-3[8:1]/3-5[8:1],,,,3/8,,,,5-1[8:1],,,6,5,,7,,
8-4[8:1],,,1,8,,2,,1xv6[8:1]/3xv6[8:1],,,,,,,,
7h[4:1]/5,,,,3,,2h[4:1]/4,,,,7,,65,,2,,
34,,45,,56,,7,,{32}8-4[8:1]/4,5,6,7,8,1,2,3,{16}Cf,,,,
1-6[8:1]/6-4[8:1],,,,6/1,,,,5q1[8:1],,,8,1,2,3,,
3v8[8:1],,,1,8,7,6,,6x-2[8:1]*-3[8:1],,,,,,,,
12,,3,4,2,,18,,78,,6,5,7,,18,18,
3xb/7xb,,,1xb/5xb,,,{32}D7,D6,D5,D4,{16}D3f/C,,,,7-2[8:1],,,,
7b/3-6-3[4:1],,,,3b/7-1-6-2b[8:3],,,,7b,,4,,4,,4bh[4:1],,
,,3,4,2,4,1,4,8,4,7,4,6-3[8:1],,,,
2-7-2[4:1]/6b,,,,2b/5-7-4-8b[8:3],,,,5b,,1,,1,,1bh[16:3],,
,7h[16:3],,,3,,5-1[8:1],4,5,4,5x,,2-7[8:1],,2,,
2b/6-3-6[4:1],,,,6b/2-8-3-7b[8:3],,,,2b,,5,,5,,5bh[4:1],,
,,6,5,7,5,8,5,1,5,2,5,3-6[8:1],,,,
7-2-7[4:1]/3b,,,,7b/4-2-5-1b[8:3],,,,4b,,8,,8,,8bh[16:3],,
,2h[16:3],,,6,,4,5,4,6,3,6,4b/5b,,,,
{16}8h[8:1]/4,,{32}A2,E3,E4,A4,{16}8h[8:1],,{32}A1,B1,C,B5,{16}8b,,{32}A2,E3,7b`E4,A4,{16},,{32}6b`A1,B1,C,B5,
{16}6h[8:1],,{32}A2,E3,E4,A4,{16}6h[8:1],,{32}A1,B1,C,B5,{16}6h[8:1],,{32}A2,E3,E4,A4,{16}7b,,7b,,
{16}7h[8:1],,{32}A1,E2,E3,A3,{16}7h[8:1],,{32}A8,B8,C,B4,{16}7b,,{32}A1,E2,6b`E3,A3,{16},,{32}5b`A8,B8,C,B4,
{16}5h[8:1],,{32}A1,E2,E3,A3,{16}5h[8:1],,{32}A8,B8,C,B4,{16}5h[8:1],,{32}A1,E2,E3,A3,{32}5x,6x,7x,8x,1x,2x,3x,4x,
{16}1h[8:1]/5x,,{32}A7,E7,E6,A5,{16}1h[8:1],,{32}A8,B8,C,B4,{16}1b,,{32}A7,E7,2b`E6,A5,{16},,{32}3b`A8,B8,C,B4,
{16}3h[8:1],,{32}A7,E7,E6,A5,{16}3h[8:1],,{32}A8,B8,C,B4,{16}3h[8:1],,{32}A7,E7,E6,A5,{16}2b,,2b,,
{16}3,4,5,6,5,4,36,,36,,,45,,,27,,
{16}2bqq5[2:1]/7bpp4[2:1],,,,,,,,,,,,,,,,
8x,,,,8x,,,,8xh[8:3],,,,{48}6b,D7,D8,D1,D2,D3f,,,,,,,
{16}8x-4[8:1],,,7,,,6,,6-2[8:1],,,5,,,4h[16:3],,
,3,,,4qq5[8:3],,5,,46,,6,,,7,,,
8-4[8:1],,,1,,,2,,2-6[8:1],,,3,,,4h[16:3],,
,5,,,2-6[8:1],,7^2[8:1],,2,,7,,{48}A3,D4,A4,D5,A5,D6,A6,,,,,,
{16}1x-5[8:1],,,2,,,3,,3-7[8:1],,,4,,,5h[16:3],,
,6,,,5pp4[8:3],,4,,53,,3,,,2,,,
1-5[8:1],,,8,,,7,,7-3[8:1],,,6,,,5h[16:3],,
,4,,,3v5[8:1]/6v4[8:1],,27,,,,,,{32}1,8,7,6,5,4,3,2,
{16}1b-5[8:1]/8b,,,8,1,,7,,6xh[8:1]/5xh[8:1],,,5xh[8:1]/4xh[8:1],,,4x/3x-7[16:1],,
,13,,,8pp3[8:3],,7,,68,,5,,,4,,,
1-5[8:1],,,2,1,,3,,5xh[8:1]/4xh[8:1],,,5xh[8:1]/6xh[8:1],,,6x-2[8:1]/7x,,
,68,,,1<6[8:1],,3pp2[4:1],,1,,3,,{32}E7,B7,B8,E1,{16},,
1xb<6[8:1]/2xb,,,3,1,,2,,1x/5x<8[8:1],,,2,5,,3,,
8xb>3[8:1]/4xb,,,6,8,,7,,8x/4x>1[8:1],,,7,4,,6,,
6xb/8xb,,4,5,3,5,2,,1xb/3xb,,5,4,6,4,7,,
6xb/8xb,,3,5,E7f/B7/B6,5,2x,,1xb/3xb,,6,4,E3f/B2/B3,4,7x,,
{24}1b,8x,1x,8x,1x,8x,1x,8x,1x,8x,1x,8x,1x,8x,1x,8x,1x,8x,1x,8x,1x,8x,1x,8x,
1x,8x,1x,8x,1x,8x,{32}A2,E3,B3,B4,B5,B6,E7,A7,{16}Chf[4:1],,,,1b,,,,
35,,A1/D2,,3,4,B1/B2,,35,,A1/D2,,3,4,B1/B2,,
35,,A1/D2,,3,4,B1/B2,,35,,A1/D2,,3,4,1b,,
B4/E4/E5/7,,7,,{32}D1/7,A1,D2,A2,{16}7,,B4/E4/E5/7,,7,,{32}D1/7,A1,D2,A2,{16}7,,
B4/E4/E5/7,,7,,{32}D1/7,A1,D2,A2,{16}7,,B4/E4/E5/7,,7,,{32}D1/7,A1,D2,A2,{16}7b,,
64,,A8/D8,,6,5,B8/B7,,64,,A8/D8,,6,5,B8/B7,,
64,,A8/D8,,6,5,B8/B7,,64,,A8/D8,,6,5,8b,,
B5/E6/E5/2,,2,,{32}D1/2,A8,D8,A7,{16}2,,B5/E6/E5/2,,2,,{32}D1/2,A8,D8,A7,{16}2,,
{24}3qq6<3b[2:1]/6,2,1,8,7,6,{16},,,,,,,,E5f,,,,
2xb,5,4,6xb,4,5,2xb,5,4,8xb,4,5,3xb,5,4,7xb,
4,5,1xb,5,4,7xb,4,5,2xb,5,4,6xb,4,5,8xb,5,
1xb,5,4,7xb,4,5,3xb,5,2xb,5,4,6xb,4,5,8xb,5,
1xb,5,4,7xb,4,5,3xb,5,1xb,5,4,5,4,5,4,5,
{24}3xb,2,1,8,7,6,{32}D3/5h[4:1],D2,D1,D8,D7,D6,D5,D4,{24}3xb,2,1,8,7,6,{32}A3/5h[4:1],A2,A1,A8,A7,A6,A5,A4,
{24}3xb,2,1,8,7,6,{32}D3/5h[4:1],D2,D1,D8,D7,D6,D5,D4,{16}3xb,,1,2xb/8xb,,6,5xb/7xb,,
{16}3b,4,2,6b,5,7,{32}1b,2x,3x,4x,{16}8b,2,6,1b,7,3,{32}8b,7x,6x,5x,
{32}2b,1,8,7,6,5,4,3,2,1,8,7,6,5,4,3,{32}2w6b[8:1],1,8,7,6,5,4,3,{48}2b,B2,Cf,{16}B6,,,
,,,,,,,,,,,,,,,,
,,,,,,,,,,,,,,,,
E
