&title=マージナルソウル
&artist=youまん
&first=0
&des=不会写小歌,放弃了
&des_5=
&clock_count=4
&lv_5=13
&inote_5=(182){4},{8},,,,,,,,,,,,,,2,
,,2,{4}2,3,
2,1-3-5[2:1],{2}6,
{8}7,,,7,{4}7,6,
7,8-6-4[2:1],{2}3,
{8}2,,,2,{4}2,3,
2,1,3,{8}6,2,
{4}8,3,2,5,
{1}5-8b[2:1],
{8}3h[4:1]/7<5[8:1],,,2,{4}2,3/4,
{8}6h[4:1]/2pp5[2:1],,,7,{4}7,8,
{8}6h[4:1]/2>4[8:1],,,7,{4}7,6/5,
{8}2/7qq4[2:1],7/2,,1,{2}2h[4:1],
{8}3h[4:1]/7-5[8:1],,,2,{4}2,3/4,
{8}6h[4:1]/2pp5[2:1],,,7,{4}7,8,
{8}7h[4:1]/4h[4:1],,,6,{4}5,4,
{8}3h[8:3],{16},,,,5,4,{4}5,4/2,
{8}3qq4[2:1],,,6,{4}6,8,
{2}7qq8[2:1],{8}3,3,2,2,
1p8[2:1],,,7,{4}7,6,
{2}6pp5[2:1],{8}3,3,2,2,
1-5-3-7[2:1],,,6,{4}6,8,
{8}7V51-3[2:1],,,8,{4}8,{8}6,6,
{4}3,1,8/6,7/5,
{1}4x/6xpp5[2:1]*qq4[8:3],
{8}4,,,5/3,{4}5/3,2,
{2}4/2pp1[2:1],{8}8,8,7,7,
6p5[2:1],,,4,{4}4,2,
{2}2/5qq2[2:1],{8}8,8,7,7,
6/2-5V31[2:1],,,6,{4}6,8,
8/3>7[4:1],7,6V82[4:1],4,
3xpp4[16:3],3x>8[8:1],3x<6[8:1],3xV15[8:3],
{8}3b,{16},,,,6,6,{4}5,7/3,
8/1,8/1,8/1,8/2,
8/1,7/1,6/8,5/8,
8/4,1/5,2/6,7/3,
{8}8x/4h[8:3],,,1,{4}1,2/8,
{8}3/8qq8[8:3],,,3,{4}2,1b,
{8}8/1pp1[8:3],,,6,{4}7,8b,
1/8h[4:1],7h[4:1],{6}6h[6:1],{24}5x,4x,{4}3bxs7[4:3]*v8[4:3],
,,,,8<5[2:1],
1,2,3,
5/3qq4[2:1],6,7,8,
4/7pp4[2:1],3,2,1,
{2}8b/4b,{4}7/2,6/5,
{2}4/3>1[8:1],5h[4:1]/6-8[8:1],
4h[4:1]/3h[4:1],{8}2,2,{4}1,
1h[4:1],8<4[4:1],4pp8[2:1],2,
{2}1h[2:1],8bw4b[8:1],
{4}7/2-4-6[4:1],2/6-3[8:1],8-5[8:1],8,
2/7-5-3[4:1],7/3-6[8:1],1-4[8:1],1,
8<5[8:1],3,{8}1>4[8:1],1,{4}6,
8-6[8:1],8/1,4/3-1[8:1],3b,
1/7V52[4:1],7/2-6[8:1],8-3[8:1],8,
1/7-5[8:1],7/8,8/2-4[8:1],2/1,
3b/7b,2b/6b,1b/5b,4bpp7[4:3]/8bpp3[4:3],
,,,,8/2-4[8:1],
2/8-4[8:1],8/2-5[8:1],2,
1/7-5[8:1],7/1-5[8:1],1/7-4[8:1],7,
3h[8:1],1h[8:1]/8h[8:1],3h[8:1]/7h[8:1],2h[8:1]/1<6[8:1],
1b>4[8:1],1b<6[8:1],1b,{8}1h[4:1],8,
{4}7,2/8-6>5[4:1],5-3>2[4:1],2-8<7[4:1],
7-4[4:1],4-1[4:1],1-6[4:1],3x,
2b,1b/5b,{16}4b/8b,{32},,,,8x/4x,1x/5x,{4}2bxpp4>3[2:1]/6bxpp8<7[2:1],
,,,1,
{8}1v4[4:1],,,5,5h[8:3],,,E4,
{4}E3,B1,{2}Ch[4:1],
{4}1h[8:1]/8h[8:1],1h[8:1]/8h[8:1],2/7,1/8,
3/6<8[8:1],{8}2,2,{4}3/6<8[8:1],B1/B2/E2,
4h[8:1]/5h[8:1],4h[8:1]/5h[8:1],6/3,4/5,
6/3-1[8:1],{8}7,7,{4}6/3-1[8:1],B5/B6/E6,
{8}8,7,6/2,3,{4}4/8,5/4,
2/6<8[8:1],{8}3,3,{4}2/6<8[8:1],B4/E4/B3,
{24}1x,B1,,,,,7x,B7,,,,,3x,B3,,,,,6x,B6,,,,,{2}4bxV28b[4:1],
Cf,
{4},8b-4[8:1],2,1-5[8:1],
{8}7,7,{4}8-4[8:1],2,1>4[8:1],
7,8<5[8:1],2,1-3[8:1],
8/1,8V64[4:1],3,B4/B3/E4,
{8}2-4[8:1],2,,7,{4}7v5[4:1],3,
{8}2-4[8:1],2,,7,{4}7v5[4:1],3,
1h[4:1],{8}6h[4:1],2,{4}4,5,
{2}5/7h[2:1],1bw5b[8:1],
{4}7-5[8:1],7/5p1[8:1],{2}3h[2:1],
{4}2-4-6[4:1],2/6-3[8:1],8<5[8:1],8,
1>4[8:1],6,{8}8<5[8:1],8,{4}3,
1-3[8:1],1/8,5/6-8[8:1],6b,
8/2V47[4:1],2/7-3[4:1],1-6[8:1],1,
8/2-4[8:1],2/1,1/7-5[8:1],8/7,
6b/2b,7b/3b,8b/4b,5bqq2[4:3]/1bqq6[4:3],
,,,,1/8-6[8:1],
8/1>4[8:1],1/4v2[8:1],7,
8/1-3[8:1],1/8<5[8:1],8/5v7[8:1],2,
3h[8:1],8h[8:1]/1h[8:1],2h[8:1]/6h[8:1],1h[8:1]/8<5[8:1],
8b>3[8:1],8b<5[8:1],8b,{8}1h[4:1],8,
{4}7,8/1>5[4:1],5qq4[4:1],7,
8,1/8<4[4:1],4pp5[4:1],3,
2bh[4:1],4bh[4:1],6bh[4:1],8b<1[4:3]*>7[4:3],
,,,,7/2>4[8:1],
2/8,1/8q4[8:1],8/7h[8:1],
8/2>4[8:1],2/8,1/8q4[8:1],8/7h[4:1],
1-3-5[8:1],8/1,{8}7,6,3,4,
{4}5<7[8:1],5/4,4/3>1[8:1],3b,
2/7<5[8:1],7/1,8/1p5[8:1],1/2h[8:1],
1/7<5[8:1],7/1,{8}3,3,2,2,
{4}1b/5b,8b/4b,7b/3b,2b>7[8:5]/6b<3[8:5],
{8},,,,,,,,2-4[8:1],
2,8-6[8:1],8,2>5[8:1],2,8,8,
7-5[8:1],7,1-3[8:1],1,7<4[8:1],7,1,1,
{4}2h[8:1]/6h[8:1],1h[8:1]/8h[8:1],4h[8:1]/7h[8:1],3h[8:1]/1-6b[8:1],
1b-4b[8:1],1b-6b[8:1],1b,{8}1h[4:1],8,
{4}6,{8}7-5[8:1],7,1,8,1-3[8:1],6,
1,7,8-6[8:1],1,2-4[8:1],1,7-5[8:1],8,
3bx/7b,2x,1bx/4bx,8x,{32}7bxh[8:1]/3bxh[8:1],,,,,4x/8x,1x/5x,2x/6x,{4}3bxq5[4:3]/7bxq1[4:3],
,,,,2h[8:1]/8q5[2:1],
2h[8:1],3h[8:1],3h[8:1],
7h[8:1]/1p4[2:1],7h[8:1],6h[8:1],5h[8:1],
{8}4,4,6,6,3,3,7,7,
{16}2,8,2,8,1,7,1,7,{4}8-4b[8:1],6,
E
