&title=Perfect Plan
&artist=Dirty Androids
&first=0
&des=Dororo
&lv_5=14
&inote_5=(150)
{1},
{16}3h[16:3],,,5h[16:3],,,1h[8:4],,,,,,,,{32}E7,B6,B5,B4,
{16}1,,,2,,,3,,8,,,7,,,6,,
{16}3h[16:3],,,5h[16:3],,,1h[8:4],,,,,,,,3,,
{16}3x-5v7[4:1],,,,,,{32}D1,A1,D2,A2,{16}D3,,,,4,4,5,,
{16}6h[16:3]/3x,,,4h[16:3],,,8h[8:4],,,,1,,1,,{32}E3,B3,B4,B5,
{16}8^3[8:1],,,7,,,6,,1^6[8:1],,,2,,,3,,
{16}5x/4x,,6,6,5,,3xb-8[8:1]/7xb-4[8:1],,,,7xb>4qq5[8:4]/3xb,,,,5xb,,
{16},,,,6,6,,E7f/B7/B6,,,,,1^4[8:1],5^8[16:1],3,7,
{16}1bs5[4:1],,,,,,,,8h[16:3],,,6h[16:3],,,7,,
{16}2h[16:3],,,4h[16:3],,,3,,45,,,56,,,6/7-1s5-3[8:5],,
{16}8xh[4:3],,,,,,,,,,,,,,,,
{16}2,,2,,7-4[8:1],1,,1,7,,,,3^8[8:1],5^8[16:1],2,6,
{16}3bq5[4:1],,,,,,,,6h[16:3],,,4h[16:3],,,7,,
{16}7h[16:3],,,5h[16:3],,,8,,8h[16:3],,,6h[16:3],,,1<4pp5[8:5],,
{16}1^3qq3[2:1],,,,,,,,,,,,,,,,
{16}26,,4,5,3,4,,E3f/B2/B3,,,,,8^5[8:1],4^1[16:1],6,2,
{16}8bp2[4:1],,,,,,,,1h[16:3],,,3h[16:3],,,2,,
{16}7h[16:3],,,5h[16:3],,,6,,54,,,43,,,3/2-8-3-7-4-6[8:5],,
{16}1xh[4:3],,,,,,,,,,,,,,,,
{16}7,,7,,2-5[8:1],8,,8,2,,,,6^1[8:1],4^1[16:1],7,3,
{16}6bpp3[16:5],,,,,,,,2h[16:3],,,4h[16:3],,,1,,
{16}1h[16:3],,,3h[16:3],,,8,,8h[16:3],,,2h[16:3],,,7>6[3:1],,
{16},4x,4xh[8:3],,,,,,{24}D7,D8,D1,D2,D3,D4,{16}5xb,,,,
{16}37,,6,4,7,3,,1,2xh[4:1]/8xh[4:1],,,,{48},E8/E3,B7/B3,B6/B4,E6/E5,,{16},,
{16}3x-5[8:1]/7x,,,1,3,,2,,2-6[8:1],,4,4,2,,3,,
{16}2-4[8:1],,,8,2,,1,,1-5[8:1],,3,3,1,,2,,
{16}1-3[8:1],,,7,1,,8,8,2x,6,6h[4:1],,,,{32}E7f/B6,E8,E1,E2,
{16}E3,,,6x,4,5x,3,1,2,1,3b/8x,,,1b/7x,,,
{16}6x-4[8:1]/5b,,,8,6,,7,,7-3[8:1],,5,5,7,,6,,
{16}7-5[8:1],,,1,7,,8,,8-4[8:1],,6,6,8,,7,,
{16}8^5[8:1]/5^2[8:1],,,,8/5,,,,1,4,2,5,3,6,4,7,
{32}5xb,E5,E4,,{16},{32}8xb,E8,E7,,{16},{32}3xb,E3,E2,,{16},,7,1,8-3[8:1],2,,,
{16}8b/4,,,4,,,4,,26,,,26,,,26,,
{16}2x/6x,,8,1,7,8,,8,7h[8:1],,5,6,4,5,3h[8:1],,
{16}4,3,5,4,6,5,7h[4:1],,,,8,7,1,8,2,1,
{24}3,7,3,{16}7,1,6,4,8,3,{24}7,6,5,1,2,3,{16}8,8,2b,,
{16}7,3,6,4,{24}8,7,6,3,2,1,{16}5,3,4,3,6,4,5,4,
{16}7,5,6,5,7,8,6,8,7,1,7,6xh[8:1]/2xh[8:1],,,62,,
{16}6,5,,5,6,3,4h[8:1],,2xb,4,3,7xb,5,6,1xb,5,
{16}3,8xb,4,6,1xb,7,3,8xbh[16:5],,,,,{32}4qq1[8:3],5,6,7,8,1,2,3,
{16}4/6h[2:1],,,,,,,,8x>4[16:3],,,4v1[8:1],8,,5,,
{16}6x<2[16:3],,,2v7[8:1],6,,3,,4x>8[16:3],,,8pp6-4-1[16:11],4,,7,,
{16}6xh[4:3],,,,,,,,,,,,,,{24}2x/5x,3x/6x,4x/7x,
{16}8x/5x,,8,,17,17,,{48}2b/6b,E6/E3,B3/B5,B4,,,{16},,,8<3p6[8:3],4,6,2h[16:9],
{16}8b,,,,,,,,5xV71[16:3],,,1-6[8:1],5,,2,,
{16}3xV17[16:3],,,7-2[8:1],3,,6,,5xV71[16:3],,,1-3qq7[16:8],5,,2,,
{16},4x,4xh[8:3],,,,,,{32}D8,D1,D2,D3,D4,D5,D6,D7,{16}D8f/C,,,,
{16}62,,84,,65,65,,7xbh[16:5]/1xbh[16:5],,,,,{48},E2/E7,B2/B6,B3/B5,E4/E5,,{16},,
{16}2,8,2,8,3,4,3,4,1,7,1,7,5,6,5,6,
{16}4^1[8:1],,3,,7^4[8:1],,6,,8x,,3,3,1,2,8,1,
{32}7x,6,5,,1x,2,3,,{16}7,5,6,4,5,3,4,2,7,7,1b,,
{16}6,5,7,3,4,2,8,8h[8:1],,4,6,6h[8:1],,3,7,7,
{32}1xv6[8:1]*v4[8:1],2,3,4,5,6,7,8,{16}1,,,,3x/7x,,,2,5,4,7h[16:3],,
{16},8,7,8,7,8,,{32}1x/6x,25,{16}34,,17,,,,6,6,
{16}5xb,,3,4,2,2,8xb,,8,1,,6,5xb,7,7,4,
{16}3,6,4xb/5xb,,3,3,4,2,6-3[8:1],6,5,7,,,,,
{16}Ch[1:3],,,,,,,,,,,,,,,,
{16}E2/E3,,,,,,,,,,,,,,,,
{16}E7/E8,,,,,,,,,,,,,,,,
{16}E1/A1/A8,,,,,,,,2^4[8:1]/7^5[8:1],,,,,,,,
{16}2h[16:3],,,1,2,,8,1,8-4[8:1],1,8,,{48}7x/8,D7,A6,{16}D6,,,
{16}7h[16:3],,,8,7,,1,8,1-5[8:1],8,1,,{48}2x/1,D3,A3,{16}D4,,,
{16}36,,3,4,2,,6,5,7,4,8-4[8:1],3,1,2,Cf,,
{16},,,,,,4,,35,,26,2h[16:3]/6h[16:3],,,,,
{16}6x^3[8:1]/2,,,1,6,,8,,8-4-1[4:1],,5,5,8,6,6,,
{16}7^4[8:1],,,2,7,,1,,1-5-2[4:1],,6,6,1,7,7,,
{16}8^5[8:1],,,3,8,,1,1,7x,3,3h[4:1],,,,{48}A2f/B2,D2,A1,D1,A8,D8,
{16}A7,,,3x,5,4x,6,8,7,8,6b/1x,,,8b/2x,,,
{16}3x^6[8:1]/4b,,,8,3,,1,,1-5-8[4:1],,4,4,1,3,3,,
{16}2^5[8:1],,,7,2,,8,,8-4-7[4:1],,3,3,8,2,2,,
{16}1h[4:1],,,,8,2,8,2,7,3,7,3,6,4,{48}6xb,E6,B5,B4,E4,,
{16},,1,7,3-7[8:1],1,,,37,,6bh[8:1],,,5bh[8:1]/7bh[8:1],,,
{16}4b/8b-6[8:1],,,3-1[8:1],8,,2,,5-7[8:1],,,8-2[8:1],5,,1,,
{16}6-4[8:1],,,3-1[8:1],6,,2,,7x,7x,7x,,{32}6xb/8xb,B8/B6,C,B3,{16},,
{16}1-3[8:1],,,6-8[8:1],1,,7,,4-2[8:1],,,1,4,,8,8,
{16}1,7,2,6,3,5,4bh[4:1],,,,{64}A2f,D2/E2,A1/B1,D1/E1,A8/B8,D8/E8,A7/B7,D7/E7,{16}A6/B6,,,,
{16}3x/5x,3x/5x,,12,1,,4x/6x,4x/6x,,78,8,6,5,6,4x/7x,4x/7x,
{16},28,8,3,4,1,6,5,8,2,6,4,,7bh[16:3]/1b,,,
{24}3,8,3,8,3,8,3,8,3,8,3,8,3,8,3,8,3,8,3,8,3,8,3,8,
{16}3-7b[75#16:1],,,,,,5x/6x,5x/6x,,,,,,,,,,
E
