&title=シンシアの光
&artist=藍井エイル /《刀剑神域 失落之歌》OP
&first=-0.096
&des=Re:RESISTER
&wholebpm=166.000
&lv_5=13+
&des_5=Re:RESISTER
&inote_5=(166)
{4},,,,,,,,
2^7[2:3]/6^3[2:3],,,,
,,,,
6s2[2:3]/2s6[2:3],,,,
,,,,
{384}3>7[3:2],{4}3?p7[3:2],,,,
{16}E6,E7,E8,E1,E2,E3,E4,E5,E6,E7,E8,E1,{12}2xh,2xh,2xh,
{16}1-6[8:1]/3,,,,1/8,,7-3[8:1],,,,5V71[4:1],,,,1V35[4:1],,
,,5,,6,,7-3[8:1],,,,8,,8-5[8:1]*-4[8:1],,,,
8,,,,4x/7,,7-4[8:1]/4x>1[8:1],,,,47,,,,8V25[4:1],,
,,5,,6,,7x,8,1,2,3,4,5,6,7,8,
{8}1<3[2:1]/3,,2,,2,,2-6[8:1],,
8,,7/5,,34,,12,,
8>6[2:1]/6,,7,,7,,7-3[8:1],,
1,,84,,35,,17,,
6/2h[4:1],,1,,3,,46,,
7h[4:1]/3,,6,,8,1,6/2q6[4:1],,
6>2[4:1],,1,,
7,,5/1<3[4:1],,
7h[4:1],,,8,
{16}4,6,4,6,3,5,3,5,
{8}1b-6[8:1],,5,,7-4[8:1]/3,,5,,
2-6[8:1]/6,,4,,8/7,6/1,5/2,,
5/6-1[8:1],,4,,2-7[8:1]/3,,4,,
7x-3[8:1]/8,,1,,24,35,46,,
7/8>3[8:1],,4h[4:1],,5,,3/7,,
2/1<6[8:1],,5h[4:1],,4,5,6-1[8:1]/2,,
3-8[8:1],3,7-4[8:1],7,2-6[8:1],,8>3[8:1]*<5[8:1],,
8,,17,,{16}2,8,3,7,4,6,3,5,
2x-6b[8:1]/4x,,2/4,,2/4,,,,7,5,6,4,
5,3,4-7[8:1],,,,4/2-5[8:1],,,,8-4b[8:1]/2,,,,8/1,,
,,3,,
6-2b[8:1]/4,,64,,64,,,,1,,1pp5[3:1],,
8,,7/1,,,,6,,7,,8x,1,2,3,4,5,6,7,8,,
{8}2bv4b[8:1],,4,5,6-1b[8:1],,5,4,3-7[8:1],,7,6,5-8[6:1],,8,1,
2-6b[8:1],,6,7,8-4b[8:1],,3,1w5b[8:1],1,,,73,73,64,53,21,
7/8V25b[4:1],8,6,7,1V73b[4:1],1,4,3,
{16}1,4,1,4,1,4,1,4,1,4,1,4,1,4,1,4,
1h[8:1],,,,7h[8:1]/3h[8:1],,,,4/2,,4h[8:1]/2h[8:1],,,,7h[8:1]/5h[8:1],,,,6/2z6[4:1],,,,,,,,,,,,,,
{32}2-6[8:1]/6,37,48,51,{8},2/4,1xqq5[3:1],,5,4w8[8:1],4,
,,8x/7x,1,24,3,45,6,
{32}7-3[8:1]/3,2,1,8,{8},7/5,8x<5[8:1],,3x-1[8:1]*-7[8:1],,3x,
,,75,7,65,6,45,3,
2V86[6:1]/8,,27,5-2[8:1],
,5/3V58[4:1],,3hx[8:3],
,,1<6[8:1],,
2/1,,8,1,
24,2,28,2,
25,2,21,78,
{16}6x,8,7,1,6,2,5,3,6,4,7,3,6,2,5,1,
{8}4b-8[8:1],,2/4,5xqq1[3:1],,1,8>3[8:1]*<5[8:1],8,
,,4x/6x,7,18,2,34,56,
7b/8b-4b[8:1],,5/8,1xb<6b[8:1],,1b/4b-8b[8:1],,{16}7x,6,5,4,
8x,1,2,3,5x,6,7,8,1-5b[8:1],2,3,4,5x,,
{8}7-4[8:1],7x,3-7[8:1],3x,8V25[16:3],8x,,,
{8}3^6[8:1],3x,7^2[8:1],7x,4-2[8:1],4x-7[32:3],,,
{8}1x-4[8:1]/8x,,1/6-1[8:1],,6/3-8[8:1],,3/7-4[8:1],,
2b-5b[8:1]/7,,6b-1b[8:1]/2b,,4bw8b[8:1]/6b,,4b,,
35,24,13,82,{16}1,7,5,6,{32}8b-4[3:2],1,2,3,4,5,6,7,
{8}8h[1:1],,,,,,,,
{16}1-6[8:1],,,,1/8,,7-3[8:1],,,,4<8[4:1],,,,8>4[4:1],,
,,4,,5,,6-2[8:1],,,,7,,7-3[8:1]*-4[8:1],,,,
7,,,,52,,2-5[8:1]/5<8[8:1],,,,52,,,,1V74[4:1],,
,,4,,3,,2x,1,8,7,6,5,4,3,,,{384}3b>7[16:61],{4}3?p7[1:4],,,,,,,
