&title=ORGE
&artist=鬱P
&first=0
&des=Mizumizu
&lv_5=13+
&inote_4=
&inote_5=(160)
{96},,
{384},,,,
(80)
{2},
{16},,
{64}1b/8b,2/7,3/6,4/5h[64:61],,,,,
{8},,,2,,1,,8p1[40#8:1],,5,,5,,5,,
{96}2bV85[40#8:1]/7bV14[40#8:1],3/6,4/5,,,,
{16},
{8},,,,,,,
{8}3-1[40#32:1]/5-7[40#32:1],,8-4[40#32:1]/4-8[40#32:1],,,,,,
{8}1b-7[40#8:1],,7-3[40#8:1],,5,,6,,
{8}6b-4[40#8:1],,4-8[40#8:1],,3,,2,,
{8}1bV37[40#8:1],,7V15[40#8:1],,6z2z6[40#32:7]*z2[40#64:7],,5,,,,,,
{12}3>6[40#8:1],6,7,8,1,2,
{8}3b,4,5-1[40#16:1],1-5[40#16:1],
{12}2/4,3/5,4/6,
{8}8/5,4,6,
{8}7/5,
{8}8-4[40#16:1],4-8[40#16:1],
{12}2/5,3/6,7/4,
{8}5/8,1,
{24}2h[12:1],,4,3h[12:1],,5,4h[12:1],,6h[4:1],5,,,5s1s5[40#4:1]*s1[40#8:1],,5,6h[12:1],,4,5h[12:1],,3,4h[8:3],,,,,,,,,,,,,,,
{12}6<3>6[40#4:1],3,2,1,8,7,
{8}6,,4,,
{24}4>6<4[40#4:1],,4,B5,4,,4/C,,4,B1,4,,
{8}4,,5,,
{24}6<8-3[40#8:1],,6,E5,6,,
{24}3>1-6[40#8:1]/7,,7,B4,7,,
{8}6/E5,,4,,
{12}3-8[40#16:1],
{24}4,,
{24}5,,
{24}6-1[40#16:1],,
{24}5,,4,,
{8}3,,6,,
{12}4z8[40#32:1]/5s1[40#32:1],3/6,2/7,1h[8:1]/8h[8:1],,,
{64}4b/5b,,,,,,,,,,,,,
{64}5,,,2v5[40#32:1],,,,,,,,8v5[40#32:1],,,,,1,,,,,,,,3,,,7,,,,,,,,2b,,,,,,,,8b,,,,,,,,
{64}4,,,,,6,,,,,,,,5,,,7v4[40#32:1],,,,,,,,
{64}1v4[40#32:1],,,,,1,,,6,,,,,6,,,3,,,,,,,,7b,,,,,,,,1b,,,,,,,,
{8}7/E4,3/B6,
{64}8-4[40#32:1],,,,,8,,,2-6[40#32:1],,,,,2,,,5,,,,,4,,,7,,,,,1,,,8b,,,,,,,,2b,,,,,,,,
{8}8-2[40#32:1]/E5,4/B7,
{64}4-6[40#32:1]/3h[64:5],,,,,7,,,5,,,,,5,,,
{12}8b,3,3,4b,7,7,
{64}5,,,,,4,,,7,,,,,1,,,2/8,,,,,,,,1v4[40#32:1]/7v4[40#32:1],,,,,6,,,5,,,,,2,,,3,,,,,,,,2/6,,,,,,,,1b/7b,,,,,,,,
{64}3,,,,,5,,,2,,,,,8,,,7/1,,,,,,,,8v5[40#32:1]/2v5[40#32:1],,,,,4/3,,,4/3,,,,,7/6,,,7/6,,,,,,,,7/3,,,,,,,,8b/2b,,,,,,,,
{8}7/E4,3/B6,
{64}8/7,,,,,3,,,8-4[40#32:1]/2-6[40#32:1],,,,,1,,,5,,,,,4,,,7,,,,,1/3,,,1/3,,,,,,,,2b/8b,,,,,,,,
{8}1-5[40#32:1]/E6,8/B3,
{64}5-1[40#32:1]/7,,,,,2,,,4,,,,,3,,,
{12}1w5[40#32:1],8,8,5,2,2,
{8}1b>8[40#2:1],,,,,,,,,,,,,,,
{16},
{32},
{64},
{384},,,,,,,
{64}1bpp3>2-5[40#2:1]*qq7>8-5[40#2:1],2/8,3/7,4/6,,,,,
{8},,,,,,,,,,,,,,,
{8}4bh[1:1],B6,B7,E8,E1,E2,B2,B3,5h[8:7],E6,E7,E8,E1,E2,E3,E4,
{24}4,,4,5,,5,6,,6,7,,7,3,,3,2,,2,1,,1,8,,8,2h[384:1],1,2,7h[384:1],8,7,3h[384:1],2,3,6h[384:1],7,6,
{8},,,,
{8}A1h[8:1]f,
{96}B8,B7,E7,,,,,,,,,,
{8}A5h[8:1]f,
{96}E1,B1,B2,,,,,,,,,,
{12}E4h[6:1],C,E8/B8/B7,
{64}7x,6x,5x,4x,3x,2x,1x,8x,7x,6x,5x,4x,3x,2x,1x,8x,7x,6x,
{64}5x,4x,,
{64}B2h[8:1]f,,,,,,,,
{64}B7,B6,B5,
{64}B4f,,,,,,,,,A5h[8:1],,,,,,,,
{96}B1,B2,E3,A3,,,,,
{96}E7,B6,B5,E5,,,,,
{96}E1,B1,B2f,E3h[96:17],,,,,
{8},Cf,
{8}A8h[8:1]f,
{96}B1,B2,E3,,,,,,,,,,
{8}A4h[8:1]f,
{96}E1,B8,B7,,,,,,,,,,
{12}E6h[6:1],C,E2/B1/B2,
{64}2x,3x,4x,5x,6x,7x,8x,1x,2x,3x,4x,5x,6x,7x,8x,1x,2x,3x,
{64}4x,5x,,
{64}B7h[8:1]f,,,,,,,,
{64}B2,B3,B4,
{64}E5f,,,,,,,,A4h[8:1],,,,,,,,
{96}B8,B7,E7,A6,,,,,
{96}E3,B3,B4,E5,,,,,
{96}E8,E7,A6,,,,,,
{96}B1,B2,E3,A3h,,,,,
{96}E7,B6,B5,E5,,,,,
{96}E1,B1,B2f,E3,,,,,
{8}A6h[8:1],
{48}B2/E2/B1,B5,B4,
{8}E4h[8:1],
{48}E2/B2/B1,B5,E6,
{12}A6h[48:5],
{48},
{24}1,1,1,3,3,3,4,4,4,6,6,6,
{48}A2h[8:1],,,,,,,
{48}E6/B6/B5,B1,B8,
{8}E8h[8:1],
{48}E6/B6/B5,B1,E2,
{12}A2,
{48},
{48}6,,6,,6,,3,,3,,3,,5,,5,,
{48}5,,4/5h[8:1],,,,,,
{24}3x,3x,4x,2,2,1,5x,5x,6x,8,8,4,3,7,7,5,1,1,2,4,4,8,6,6,
{24}2,4,3,7,5,6,8,3,2,1,6,7,3h[384:1],5,1,7h[384:1],5,1,2h[384:1],3,2,7h[384:1],6,7,
{8}B2h[8:3]/B7h[8:3],,B3h[8:1]/B6h[8:1],,
{12}1b/8b,2b/7b,3b/6b,
{8}4bh[4:1]/5bh[4:1],,
{64},,,,,,,,,,,,,,,,,,,,,,,,,
{8}4z8[40#32:1]b/5s1[40#32:1]b,,,3/6,4b/5b,
{64}3/6,,,,,4,,,5,,,,,
{64}4,,,7v4[40#32:1],,,,,,,,1v4[40#32:1],,,,,8,,,6-2[40#32:1]b,,,,,5,,,2,,,,,,,,7b,,,,,,,,1b,,,,,,,,
{64}6,,,,,3,,,3h[64:5],,,,,4,,,2v5[40#32:1],,,,,,,,
{64}8v5[40#32:1],,,,,8,,,3-7[40#32:1]b,,,,,3,,,6,,,,,,,,2b,,,,,,,,8b,,,,,,,,
{8}3/E6,6/B8,
{64}1-5[40#32:1]b,,,,,1,,,7-3[40#32:1]b,,,,,7,,,4,,,,,5,,,2,,,,,8,,,1b,,,,,,,,7b,,,,,,,,
{8}1-7[40#32:1]b/E5,5/B2,
{64}5-3[40#32:1]b/6h[64:5],,,,,2,,,4,,,,,4,,,
{12}1b,6,6,5b,2,2,
{64}5,,,,,4,,,7,,,,,1,,,2-4[40#32:1]/8-4[40#32:1],,,,,,,,1-5[40#32:1]b/7-5[40#32:1]b,,,,,7,,,6,,,,,2,,,3,,,,,,,,2b/8b,,,,,,,,1b/7b,,,,,,,,
{64}3,,,,,5,,,2,,,,,8,,,7-5[40#32:1]/1-5[40#32:1],,,,,,,,8-4[40#32:1]b/2-4[40#32:1]b,,,,,2,,,3,,,,,7,,,6,,,,,,,,7b/1b,,,,,,,,8b/2b,,,,,,,,
{8}7/E4/B3/B4,3/E7/B7/B6,
{64}8/7,,,,,3,,,8-4[40#32:1]b/2-6[40#32:1]b,,,,,1,,,5,,,,,4,,,7,,,,,1/3,,,1/3,,,,,,,,2b/8b,,,,,,,,
{8}8-4[40#32:1]b/E4,1/B6,
{64}4-8[40#32:1]b/2,,,,,3/1,,,3/1,,,,,6,,,
{12}8bw4[40#32:1]b,1,1,4b,7,7,
{8}8b,
{24}2,,1,2-7[40#32:1]/6-3[40#32:1],,,3/7,,,1/5,,8,4,,,2b/6b,,
{1},,,,
E
