&title=初めての恋が终わる时
&artist=ryo(supercell)
&first=0
&des=Tail_R
&lv_5=13+
&inote_5=(100)
{1},
{48},,,,,,,,,,,,,,,,,,,,,,,,,,,,,,,,,,,,,,,,,,,,,,,,
{48}A2,E3,E4,,,,,,,,,,,,,,,,,,,,,,,,,,,,,,,,,,,,,,,,,,,,,,
{48}A8,E8,E7,,,,,,,,,,,,,,,,,,,,,,,,,,,,,,,,,,,,,,,,,,,,,,
{48}A1,B1,C,,,,,,,,,,,,,,,,,,,,,,,,,,,,,,,,,,,,,,,,,,,,,,
{1}3x-6[2:3],
{1},
(180)
{4}5/4h[4:1],5,7h[4:1]/5,8,
{4}2h[4:1]/1,1,3h[4:1]/4,5,
{8}6h[4:1]/8,,1,2/8,,4,3/5,,
{4}5V74[2:1],3-8[4:1],,,
{4}1h[4:1]/5,5,3h[4:1]/4,7,
{4}2h[4:1]/8,8,4h[4:1]/6,3,
{4}1-6[4:1]/2,3,4-8[4:1],5,
{4}6pp3[2:1],4,3,2,
{8}1x,3h[8:3]/4,,,{12}5,4,6,5-2[8:1],,,
{8}5b/6b,,8,8,1h[8:3],7,6,5,
{8}4V61[8:3]/3,,,1,2,3,8x/4,,
{16}1/6,,,,3,,3,,2/4,,2/4,,1x,8x,7x,6x,
{8}5bx/1bx,3bx/7bx-3[8:1],,4bx-1[8:1],,5hx[8:3],,,
{8}2,2,4,3,5h[8:3],4,3,2,
{8}1>6[8:3]/8,,,6,7,8,1/5x,,
{16}4bx-1[8:1]/7,,,,,,8x,7x,6x-1[8:1],,,,,,2x,3x,
{16}4x-8[8:1],,,,,,7x,6x,5xw1[8:1],,,,,,,,
{8}3b/7b,,2,2,3h[4:1]/4,,1,,
{8}1/8,,7,7,6h[4:1]/5,,8,,
{8}1/2,,3,3,2h[4:1]/4,,1,,
{8}7/8,6,7/8,1qq2[8:3],,6x,,,
{8}4-8[8:1],,2,3,4-8[8:1]/7-5[8:1],,,,
{8}4-8[8:1]/1,,2,3,4-8[8:1]/7-5[8:1],,,,
{8}4-8[8:1]/1,,2,3,4-8[8:1]/7-5[8:1],,,,
{8}4-8[8:1]/1,,2,3,4/7,4/7,5b-8[8:1]/6b,,
{8}5x/4x,,2,1,3/8,1,2,3/8,
{8}4/7h[4:1],,1,1,2h[4:1]/8,,4,4,
{8}3h[4:1]/5,,7,8,1/6,8,7,1/6,
{8}2qq4[2:1],,6x,6x,7x,7x,8x,8x,
{8}1-5[8:1]/4,,3,2,1-5[8:1]/6-8[8:1],,1x/6x,,
{8}1-5[8:1]/4,,3,2,1-5[8:1]/6-8[8:1],,1x/6x,,
{8}1-5[8:1]/4,,3,2,1-5[8:1]/6-8[8:1],,1x/6x,,
{8}1bx/4bx,1xb/4bx,3bx/8xb,3xb/8xb,2xb/7xb,2xb/7xb,1xb/6xb,,
{8}7h[4:1]/8,,1,,2/4,3,3-5[8:1],,
{8}6hx[4:1],,4,5,3h[4:1],,4-6[8:1],,
{8}2h[4:1],,8h[4:1],,1,1,2/8,2/8,
{4}7^4[4:1]/3,4^1[4:1],1^6[4:1],6,
{8}4h[4:1],,5,,8/6,7,7-5[8:1],,
{8}1h[4:1],,4,3/5,,2,1/3h[4:1],,
{8}8^5[8:1],8,3,3,1^4[8:1],1,6,6,
{16}7b/5b,,6,4,5,,3xb/7bx,,4,5,3,,2bx/6bx,,,,
{8}3qq4[16:5]/4,,5,,7qq8[16:5],,4,4,
{8}3qq4[16:5],,5,,7h[4:1],,4,4,
{8}2x-5[8:1]/6xh[4:1],,2,7,8x-4[8:1]/3xh[4:1],,8,2,
{8}1b/6b,,E1,,C,,E5,,
{2}6x^3[4:1],1x-5[4:1],
{2}7x^4[4:1],2x-6[4:1],
{2}5x^8[4:1],3x-6[4:1],
{16}8hx[2:1],,,,,,,,4,8,4,8,4,8,4,8,
{8}4b-8[8:1],,4/3,1>4[8:1],,5-1[8:1]*-7[8:1],,5>2[8:1],
{8},8-3[8:1]*-5[8:1],,8,,26,2-5[8:1]/6-1[8:1],,
{8}26,,5,6-8[8:1]/4-8[8:1],,4>1[8:1]/6,,4<7[8:1],
{8},4qq1[8:3],,4,,8,7h[4:1],,
{4}2-6[8:1],1-5[8:1],8-4[8:1],7-3[8:1],
{4}6-2[8:1],5-1[8:1],4-8[8:1],3-7[8:1],
{8}1,1,8,8,7/5,6,4/5,3,
{16}2b,1,2,1,2x-5[8:1],,5xV38[4:1],,7x-3[8:1],,7x,,,,,,
{8}5b-1[8:1]/1,,5/6,8<5[8:1],,4-8[8:1]*-2[8:1],,4<7[8:1],
{8},1-6[8:1]*-4[8:1],,1,,73,7-4[8:1]/3-8[8:1],,
{8}73,,4,3-1[8:1]/5-1[8:1],,3/5,,2/8,
{8}3x/7x,3/7,1/5,1/5,{16}2-5b[8:1],8,2,8,2bx,,,,
{4}6<2[4:1]/4,2<6[4:1],E3,E5,
{4}4V28[4:1],8V24[4:1],E6,E8,
{8}8/5,7,8/4,6,8/3,5,8/2,4,
{16}8/1,,3,,6/4,,8,,7-3b[8:1],1,7,1,7x,,,,
{4}4b-7[8:1]*-8[8:1],4x,5b-2[8:1]*-1[8:1],5x,
{4}7b-4[8:1]/8b-4[8:1],7x/8x,2b-5[8:1]/1b-5[8:1],2x/1x,
{8}4/6,2,3/5,7,4/6,1,3/5,8,
{16}2,1,2,1,3,7,3,7,4,6,4,6,{24}4x,3x,2x,8x,7x,6x,
{1}1bx-5[2:7]/5x,
{1},
{1},
{1},
{2}E4,A5,
{2}B3,E6,
{2}B2,B6,
{2}E2,B7,
{2}1x-4[2:1],E6,
{2}8x-5[2:1],E4,
{2}1x-4[2:1],E8,
{2}8x-5[2:1],E2,
{1}1bxv4[2:1]/5bxv8[2:1],
{1}8bxv5b[2:1]/4bxv1b[2:1],
{2}3bh[2:1],4xqq5[1:1],
{1}6xpp4b[2:1],
{8}4b-7[8:1]/8,,4/3,1-5[8:1],,6-1b[8:1]*-2[8:1]/1,,6^3[8:1],
{8},8w4[8:1]/6,,8,,26,2v5[8:1]/6v1[8:1],,
{8}26,,8/4,8^5[8:1]/4^1b[8:1],,4-8[8:1]/8,,4^7b[8:1]*^1[8:1],
{8},4qq5[16:5],,4,,8,7h[4:1],,
{4}1-6[8:1],7-4[8:1]/1,5-2[8:1]/7,5/3-8[8:1],
{4}6^3[8:1]/3,1^6[8:1]/6,4^6[8:1]*^1b[8:1]/1,4x,
{8}7/8,5,7/8,2,4/5,7,4/5,1,
{16}2b,8,2,8,3,7,3,7,{32}4x,5x,6x,7x,8x,1x,2x,3x,4xb/Cf,,,,,,,,
{8}1b-5[8:1],1,6-1[8:1],6,3-7[8:1],3,8-3[8:1],8,
{8}5b>1[4:1],5,8,7,6qq7[4:1],6,1,2,
{8}3b^8[8:1],4,7b-3[8:1],6,1b^4[8:1],8,6b,5,
{16}3b,4,2,5,1,6,8,7,1,8,2,7,3,6,4,5,
{1}4bq8[2:3]*p8[2:3],
{1},
{8}1b/7b,1/7,2/6,2/6,3/4,3/4,1/5,1/5,
{16}8,7,5,6,1,7,5,6,2,7,5,6,3,7,5,6,
{8}4b^1[8:1],,4qq6[8:3],5,5,,7,,
{8}8b^5[8:1],,8qq1[16:5],4,4,,3^6[8:1],,
{1}3bqq5b[4:4]/6bpp4[4:4],
{16},,,,,,,,1,8,2,7,1-5[8:1],8,3,6,
{32}1bx,B1,Cf,B5,,,,,,,,,,,,,,,,,,,,,,,,,,,,,
&inote_6=
