&title=20k (Aero Chord Remix)
&artist=Pegboard Nerds, Aero Chord
&first=0
&des=monstercat = c1ty
&des_5=monstercat = c1ty
&lv_5=13+
&inote_5=(172){4},,,,5b/4b,
{8}6,5,,3,{4}4,
4/5,{8}5,1,,1,1,5,
{4}4/5,{8}3,4,,6,{4}5,
5/4,{8}4,8,,8,8,4,
{4}5/4,{8}7,5,,2,{4}4,
4/5,{8}5,1-3[8:1]*-6[8:1],,,,5,
{4}4/5,{8}7,5,,2,{4}4,
{8}1/8h[1:1],1,1,1,1,1,1,1,
{4}1b-5[8:1],B8,B8,B8,
2b-6[8:1],B1,B1,B1,
3b-7[8:1],B2,B2,B2,
4b-8[8:1],B3,B3,B3,
5b-1[8:1],B4,B4,B4,
6b-2[8:1],B5,B5,B5,
7b-3[8:1],B6,6xpp3[1:1],6x>7[4:3],
,,,,{2}5b/4h[2:1],
{4}B4,2/1h[2:1],
{8},,2,1,B2,1,,6,
{2}4/5h[2:1],{4}B5,7/8h[2:1],
{8},,7,8,8/B7,8,,3,
{2}5/4h[2:1],{4}B3,2/1h[2:1],
{8},,2,1>3[8:1],B2,1,,6,
{2}4/5h[2:1],{4}B6,7/8h[2:1],
{8}7,7,7,7,B1/7-3[8:1],7,,,{4}6b/5h[2:1],
6,B1/B8,3/2h[2:1],
3,{8}3,2,C/B3,2,4,6,
{4}3/4h[2:1],3,B8/B1,6/7h[2:1],
6,{8}6,7,7/C/B6,7,5,3,
{4}6/5h[2:1],6,B1/B8,3/2h[2:1],
3,{8}3,2<5[4:1],{2}C/B3,
{4}3/4h[2:1],3,B8/B1,6/7h[2:1],
{8}5,5,5,5,5-1[8:1]*s1[8:1],5,,,{4}4b>1[8:3],
E8,E7,E6,
5<8[8:3],E2,E3,{16}1,8,1,8,
{4}1>5[8:3],5h[8:1],6h[8:1],{8}7,7,
{4}1h[8:1]/8<4[8:3],4h[8:1],3h[8:1],{8}2,{16}8,2,
{8}7-4[8:1],7,3,3,8-4[8:1],8,3,3,
{16}1,5,2,6,4,8,3,7,{8}8/1,2,4v2[8:1]/5-1[8:1],6,
{64}4b/5b<4[1:1],Cf/B5/B4/B2/B1,{1},{4},{16},,,{32},{8}5-7[16:1]/3-8[16:1],
3h/5h,{32},,,,,,,,1b/7b,
2x,{16}3x,6,5,6,5,{8}6,2,{16}7,5,7,5,{8}7,
3,{16}8,5,{8}8,8,8-4[8:1],2v5[8:1],8,2,
{32}8b,7x,{16}6x,3,4,3,4,{8}3,7,{16}2,4,2,4,{8}2,
6,1/4,4/1V75[8:1]*v4[8:1],1/4,{32},,,,,,,,,,,,,,,,1b,
2x,{16}3x,6,5,6,5,{8}7,2,{16}7,5,7,5,{8}8,
3,{16}8,5,{8}8,1,8-4[8:1],2v5[8:1],8,2,
{32}8b,7x,{16}6x,3,4,3,4,{8}2,7,{16}6,5,{8}4/3,2,
5,5,4,{16}5,4z8[16:3],{2}5s1[8:1],
{32},,,,,,,,,,,,,,,,2b/7b,3x,{16}4x,6,8,6x,8,{8}6,
3,{16}5,8,{8}5x,5,8x-4[8:1],1-3[8:1],8x,1,
{32}7b,6x,{16}5x,2,1,2x,1,{8}2,6,{16}3,1,3x,1,{8}3,
7,4/1,4x/1x,4/1,,C,{16}B8,B7,B6,B5,
{32}2b,3x,{16}4x,7,8,7x,8,{8}6,3,{16}6,8,6x,8,{8}5,
2,{16}5,8,5x,8,{8}4,{32}1-5[8:1],2x,{16}3x,{32}5V31[8:1],6x,{16}7x,{8}1x,8x,
{32}7b,6x,{16}5x,2,1,2x,1,{8}3,6,{16}3,4,{8}5x/6x,7,
8h[8:1],7h[8:1],6h[8:1],5h[8:1],4h[8:1],3h[8:1],2,1,
8bpp5[2:1],,,,,4,4,4,
4qq1[2:1],,,,,7,7,7,
7pp3[2:1],,,,,5,5,5,
{1}5p3[2:1],
{8}6bpp4[2:1],,,,,2,2,2,
2pp8[2:1],,,,,5,5-1[8:1],5,
{1}5bV74[2:1]*<3[2:1],
{16},,2,4,3,4,{8}3,{16}6,5,{8}6,{16}3,4,{8}3,
{4}6b<4[2:1],5,{8}5,5h[8:1],,,{4}5q3[2:1],
7,{8}7,7h[8:1],,,{4}7V15[2:1],
3,{8}3,3h[8:1],,,{4}4V62[2:1],
8,{8}8,8h[8:1],,,{4}8<4[4:1],
4V68[4:1],{8}3,3,{4}3,
3>7[4:1],7V13[4:1],{8}5,5,{4}5,
5V74[4:1],4V61[4:1],{8}3,3,{4}3,
3V52[4:1],2V48[4:1],{8}7,7,{4}7,
1b-5[8:1]/6b-8[8:1],1/6,{8}5h[16:1]/1<5[8:1],4h[16:1],3h[16:1],2h[16:1],
{4}1-5[8:1],1/2,{8}5h[16:1]/1>5[8:1],6h[16:1],7h[16:1],8h[16:1],
{4}1-5[8:1],1/8,{8}5h[16:1]/1<5[8:1],4h[16:1],3h[16:1],2h[16:1],
1>4[8:1],1/8,,,{4}6v3[8:1]/2v7[8:1],6/2,
8b-4[8:1],8/2,{8}4h[16:1]/8>4[8:1],5h[16:1],6h[16:1],7h[16:1],
{4}8-4[8:1],8/6,{8}4h[16:1]/8<4[8:1],3h[16:1],2h[16:1],1h[16:1],
{4}8-4[8:1],8/2,{8}4h[16:1]/8>4[8:1],5h[16:1],6h[16:1],7h[16:1],
8<5[8:1],8/2,,2,3b/8b,2,8bz4[16:1]/7bv4[16:1],6,
{64},Cf,,,,,,,,,,,,,,,{4}7x/E2,E3,5x/E4,
E1,2x/E8,E7,4x/E6,
E2,5x/E3,E4,7x/E5,
E8,4x/E7,E6,2x/E5,
1>5[8:3],5h[8:1],6h[8:1],{8}7,7,
{4}1h[8:1]/8<4[8:3],4h[8:1],3h[8:1],{8}2,{16}8,2,
{8}7-4[8:1],7,3,3,8-4[8:1],8,3,3,
{16}1,5,2,6,4,8,3,7,{8}4/5,3/6,{32}4xV28[8:1],5xp7[32:3],6x,7x,8x,1x,2x,3x,
{1}Cf/B1/E2/B2/B3/B8/E3/E1/4bx>5[1:1],
{8},,,,4-2[16:1]/6-1[16:1],6h/4h,{32},,,,,,,,8b/2b,
7x,{16}6x,3,4,3v8[8:1],4,{8}3,{4}3/7-3[8:1],7/4v7[8:1],
4/8-4[8:1],{8}8-2[8:1],1,8/7,{32}6,5x,,,3,4x,,,7,6x,,,{8}2b,
{16}6,5,6v1[8:1],5,{8}6,{4}6/2-6[8:1],2/5v2[8:1],
5/1-5[8:1],{8}1-3[8:1],8-6[8:1],1-5[8:1],8-4[8:1],1,8,
1b,{16}6,5,7v2[8:1],4,{8}8,{4}7/3v6[8:1],3/7V13[8:1],
7/4,{8}6<8[8:1],2>4[8:1],6v1[8:1],2<4[4:1],6,2,
,,,,1/6,{16}2,3,{8}4/5,6,
{32}2/1,3x,{16}4x,{32},,7,6x,{8}5x,{32}1b,2x,,,7b,6x,,,3b,4x,,,8b,7x,,,4b,5x,,,{4}8-4[8:1],
{8}8b/1,1,8-4[8:1],2,2/8<6[8:1],2,
{4}2/8-4[8:1],{8}3/8<6[8:1],3,1/8-4[8:1],2,8/3,1,
{4}1-5[8:1],{8}1/8,8,1-5[8:1],7,7/1>3[8:1],7,
{4}7/1-5[8:1],{8}6/1>3[8:1],6,8/1-5[8:1],7,6/1b,8,
{4}8-4[8:1],{8}1/8,1,8-4[8:1],3-1[8:1],8<6[8:1],3,
8-4[8:1],3-5[8:1],8<6[8:1],3-1[8:1],8-4[8:1],3,8,2,
{4}1-5[8:1],{8}6,6-8[8:1],,2,2,2,
{32}7b/1,6x,5x,4x,,,2b/8,3x,4x,5x,,,7b,6x,{16}5x,{32}1,2x,,,6x,5,,,2,3x,,,5,4x,,,{4}2h[2:1],
{8}4,4,,5,5/3h[8:3],5,
{4}5,{8}6/3h[4:1],6,7,6,5,7,
{4}7h[2:1],{8}5,5,,4,4/6h[8:3],4,
{4}4,{8}3/6h[4:1],3,2,3,1,2,
{4}2h[2:1],{8}4,4,,5,5/3h[8:3],5,
{4}5,{8}6/3h[4:1],6,7,6,5,7,
{4}2,{8}7,7,,8,3,8,
{32}2b/8,3x,4x,5x,,,7b/1,6x,5x,4x,,,2b,3x,{16}4x,{32}8,7x,,,3,4x,,,7,6x,,,4,5x,
E
