&title=ヒトリゴト
&artist=ClariS/TVアニメ「エロマンガ先生」OPテーマ
&first=0.89
&des=Ragna
&des_5=Ragna
&wholebpm=165
&demo_seek=54.6
&demo_len=11.2
&lv_5=14
&inote_5=(165){8}
1b-5[8:1]/5,1qq6[8:3]/5bqq5[8:3],,,,,,,
8b-4[8:1]/4,8pp3[8:3]/4bpp4[8:3],,,,,,,
1b-5[8:1]/5,1qq6[8:3]/5bqq5[8:3],,,,,,,
8^5[8:1]/4^1[8:1],,,,8-3[8:1]/4-7[8:1],,,,
1b-5[8:1]/5,1qq5[8:3]/5bqq4[8:3],,,,,,,
8b-4[8:1]/4,8pp4[8:3]/4bpp5[8:3],,,,,,,
1b-5[8:1]/5,1qq5[8:3]/5bqq4[8:3],,,,,,,
7-4[8:1]/3-8[8:1],,,,1^4[8:1]/5^8[8:1],,,,
3>7[4:1]/7^5[8:1],,7>3[4:1],,4,5,6,7<3[4:1],
,3>7[4:1],,7^5[8:1],,3,,1,
2^4[8:1]/6<2[4:1],,2<6[4:1],,5,4,3,2>6[4:1],
,6<2[4:1],,2^4[8:1],,6,,8,
3V17[4:1]/7-5[8:1],,7V13[4:1],,4,5,6,7V53[4:1],
,3V17[4:1],,7-5[8:1],,3,,1,
2-4[8:1]/6V82[4:1],,2V86[4:1],,5,4,3,2V46[4:1],
,6V82[4:1],,2-4[8:1],,6,,8,
3^5[8:1]/7,,1^3[8:1],,7^1[8:1],,5^7[8:1],,
3^5[8:1],,1^3[8:1],,7<3[16:3]*p1[16:3],,,,
,8,7,6,4,3,6,5,
2,2-6[8:1],,8h[4:1],,5,4,3,
6-8[8:1]/2,,4-6[8:1],,2-4[8:1],,8-2[8:1],,
6-8[8:1],,4-6[8:1],,2V46[16:3]*q8[16:3],,,,
,1,2,3,6,7,2,3,
8,8-3[8:1],,1h[4:1],,4,5,6,
3h[4:1]/7h[4:3],,,,2h[4:3],,,,
6h[4:3],,,,3h[4:3],,,,
4h[4:3],,,,5h[4:1],,,,
4-8[8:1]/5-1[8:1],,,,{12}7,5,6,3,4,2,{8}
5-7[8:1]/1h[8:1],,5-1[8:1]/3h[8:1],,
5-8[8:1]/2h[8:1],,5-2[8:1]/4h[8:1],,
5-7[8:1]/1h[8:1],,5/3h[8:1],,24,35,46,57,
4-2[8:1]/8h[8:1],,4-8[8:1]/6h[8:1],,
4-1[8:1]/7h[8:1],,4-7[8:1]/5h[8:1],,
4-2[8:1]/8h[8:1],,4/6h[8:1],,57,64,35,24,
1^3[8:1]/5h[8:1],,1^7[8:1]/7h[8:1],,
1^4[8:1]/6h[8:1],,1^6[8:1]/8h[8:1],,
1-5[8:1]/5h[8:1],,1/7h[8:1],,84,73,62,15,
4-1[8:1]/2,,45,6,5-8[8:1]/7,,45,3,
2/4-1[8:1],,5-8[8:1]/4,,7pp3[16:5]/5,,74,,
5,5-1[8:1],,8h[4:1]/5,,{24}2h,3h,4h,5h,6h,7h,8h,1h,2h,{8}
3-1[8:1]/5,4,5-7[8:1]/3,4,3-1[8:1]/5,4,5-7[8:1]/3,4,
3-1[8:1]/5,4,5-7[8:1]/3,4,35,1b,8b/2b,7b/3b,
4-2[8:1]/6,5,6-8[8:1]/4,5,4-2[8:1]/6,5,6-8[8:1]/4,5,
4-2[8:1]/6,5,6-8[8:1]/4,5,64,1b,2b/7b,3b/6b,
5-1[8:1]/4,6,4-8[8:1]/5,3,5-1[8:1]/4,6,3-7[8:1]/5,4,
5-1[8:1]/3,6,2-6[8:1]/5,3,5w1[8:1]/2,,5,,
7^5[8:1]/3^5[8:1],,3^1[8:1]/7^1[8:1],,3v8[8:1]/7-4[8:1],,37,,
1^3[8:1],5^7[8:1],1,5,{24}1,2,3,5,6,7,1,2,3,5,6,7,{8}
2-4[8:1]/8,1,8-6[8:1]/2,1,2-4[8:1]/8,1,8-6[8:1]/2,1,
2-4[8:1]/8,1,8-6[8:1]/2,1,28,4b,3b/5b,2b/6b,
1-3[8:1]/7,8,7-5[8:1]/1,8,1-3[8:1]/7,8,7-5[8:1]/1,8,
1-3[8:1]/7,8,7-5[8:1]/1,8,17,4b,3b/6b,2b/7b,
8-4[8:1]/1,7,1-5[8:1]/8,2,8-4[8:1]/1,7,2-6[8:1]/8,1,
8-4[8:1]/2,7,3-7[8:1]/8,2,8w4[8:1]/3,,8,,{32}
2,1,8,7,6,5,4,3,2,1,8,7,6,5,4,3,{8}2-6[8:1]/6,,8-4[8:1]/2,7,
3-8[8:1]/8,,5-7[8:1]/3,,1-5[8:1]/5,,8h[4:1]/1,,{32}
4,3,2,1,8,7,6,5,4,3,2,1,8,7,6,5,{8}4-1[8:1]/8,,7-3[8:1]/4,6,
7/2-5[8:1],,4-7[8:1]/2,,3-8[8:1]/4,,3/6h[4:1],,{32}
1,2,3,4,5,6,7,8,1,2,3,4,5,6,7,8,{8}1^4[16:1]/5,,{32}5b/1,6,7,8,{8}5b<4[2:1]/1h[8:9],
,,,,,,,,{32}
3,2,1,8,7,6,5,4,3,2,1,8,7,6,5,4,{8}3^6[8:1]/7,,8-3[8:1]/3,7,
4-8[8:1]/8,,5-2[8:1]/4,,1-6[8:1]/5,,1/8h[4:1],,{32}
5,4,3,2,1,8,7,6,5,4,3,2,1,8,7,6,51,48,37,62,51,48,{8}7-2[8:1]/3-6[8:1],,7b/3b,
{1},
E
