&title=FEEEEVER TIME
&artist=Nor
&first=0.15
&des=Hare
&lv_5=14
&inote_5=(180)
{8}
2/8,2,8-4[8:1],8,1-5[8:1],1,7p4[4:1],7,,2,,1,,,,8,
7/1,7,1-5[8:1],1,8-4[8:1],8,2>5[8:1],,8,7,6,5,4,
{16}
8b,8b,8b,,1,,
{8}
2/8,2,8p4[8:1],8,1q5[8:1],1,7p4[4:1],7,,2,,1,,,,8,
7/1,7,1q5[8:1],1,8p4[8:1],8,2>5[8:1],,
{16}
6,7,8,1,2,3,4,5,
{8}
6/3,,,4,3-8[8:1]/5,3,5-1[8:1],5,4-8[8:1],4,6q1[4:1],6,,2,,3,,,,5,
6-2[8:1]/4,6,4-8[8:1],4,5-1[8:1],5,3>8[8:1],,5,6,7,8,1,
{16}
5b,4b,5b,,3,,
{8}
3p7[8:1]/5,3,5q1[8:1],5,4p8[8:1],4,6q1[4:1],6,,3,,4,,,,5,
6q2[8:1]/4,6,4p8[8:1],4,5,5,3h[8:1],1,8/3,2/7,1/6,8/5,7>2[8:1]/4<7[8:1],,,,
{16}
3,4,1,2,7,8,5,6,3,4,6,5,8,7,2,1,4,3,1,2,7,8,5,6,3,4,6,5,8,7,2,1,4,3,1,2,7,8,5,6,3,4,6,5,8,7,2,1,4,3,1,2,7,8,5,6,3,4,6,5,8,7,2,1,4,3,1,2,7,8,5,6,3,4,6,5,8,7,2,1,4,3,1,2,7,8,5,6,3,4,6,5,8,7,2,1,4,3,1,2,7,8,5,6,3,4,6,5,8,7,2,1,4b,3,1b,2,7b,8,5b,6,
{8}
4bw8[8:1],,,,2/8-5[8:1],2,2,2,2/4-7[8:1],2,2,2,2/6-3[8:1],2,2,2,2/4-1[8:1],2,2h[8:1],,3/1-6[8:1],3,3,3,3/5-8[8:1],3,3,3,3/7-2[8:1],3,3,3,3/1,4,5,6,
{16}
7,8,7,8,7,,7,,
{8}
7/5-2[8:1],7,7,7,
{16}
6,5,6,5,6,,6,,
{8}
6/4-1[8:1],6,6h[8:1],,2>4[8:1],7<5[8:1],2-5[8:1],7-4[8:1],2-6[8:1],7-3[8:1],2,7,
{16}
1,8,1,8,1,,3/6,,4-1[8:1]/5-8[8:1],,,,4/5,,,,
{4}
3h[4:1],1h[4:1],6h[4:1],8h[4:1],2h[4:1],4h[4:1],7h[4:1],5h[4:1],3h[4:1],1h[4:1],6h[4:1],8h[4:1],2h[4:1],4h[4:1],7h[4:1],5h[4:1],1h[4:1],3h[4:1],8h[4:1],6h[4:1],4h[4:1],2h[4:1],5h[4:1],7h[4:1],1h[4:1],3h[4:1],8h[4:1],6h[4:1],
{16}
4,5,4,5,4,,3/6,,4-1[8:1]/5-8[8:1],,,,
{8},,
2/8,2,8p4[8:1],8,1q5[8:1],1,7p4[4:1],7,,2,,1,,,,8,
7/1,7,1q5[8:1],1,8p4[8:1],8,2>5[8:1],,8,7,6,5,4,
{16}
8b,8b,8b,,1,,
{8}
2>4[8:1]/8,2,8p4[8:1],8,1q5[8:1],1,7p4[4:1],7,,2,,1,,,,8,
7<5[8:1]/1,7,1q5[8:1],1,8p4[8:1],8,2>5[8:1],2,1,8,7,6,5w1[8:1],,,,
{16}
2,3,6,7,5,4,1,8,3,2,7,6,8,1,4,5,2,3,6,7,5,4,1,8,3,2,7,6,8,1,4,5,2,3,6,7,5,4,1,8,3,2,7,6,8,1,4,5,2,3,6,7,5,4,1,8,3,2,7,6,8,1,4,5,3,4,7,8,6,5,1,8,2,1,6,5,7,8,4,5,3,4,7,8,6,5,1,8,2,1,6,5,7,8,4,5,3,4,7,8,6,5,1,8,2,1,6,5,7,8,4,5,3b,4,7b,8,6b,5,1b,8,
{8}
2bw6[8:1],,,,
1/5-8[8:1],1,2,2,3/1-6[8:1],3,4,4,5/4-1[8:1],5,6,6,7/1q6[8:1],7,8h[8:1],,8/6-1[8:1],8,7,7,6/1-4[8:1],6,5,5,4/5-8[8:1],4,3,3,2,1,8,7,
{16}
6,5,6,5,6,,6,,
{8}
6/4-1[8:1],6,5,5,
{16}
3,4,3,4,3,,3,,
{8}
3/5-8[8:1],3,4,,4>2[8:1],5<7[8:1],4-1[8:1],5-8[8:1],4-7[8:1],5-2[8:1],4,5,
{16}
4,5,4,5,4,,3/6,,4-8[8:1]/5-1[8:1],,,,4>5[1:1]/5<4[1:1],
