&title=Sentimental Journey
&artist=Switchworks
&first=0
&des=Charholer
&lv_5=13+
&inote_5=(180){1},4hx[2:15]/5hx[2:15],,,,,,,,
{4}2-6[8:1]/8,2,1/7-3[8:1],7,1/2-6[8:1],2,8/7-3[8:1],7,
{4}2/1-5[8:1],1/8,7/8-4[8:1],8/1,2/1-5[8:1],1/7,7/8-4[8:1],8/2,
{16}3/6,,,,8,1,8,,1/2,,3,,5,4,5,4,6/3,,,,1,8,1,,8/7,,6,,4,5,4,5,
{16}3/6,,,,8,1,8,1,7,2,6,3,5,4,6,3,{1}Ch[1:1],
{8}1,1<7-3<5[8:3]/8,{4},,,
{16}2/6,,4,5-8[8:1],3,,3,5,,,3,,1,2,1,2,
{8}8,1-4<6[8:3]/8,{4},,,
{16}2,1,3,8,4,,6,5,7,4,8,,2,1,3,8,
{8}4,4/5>3-7>1[8:3],{4},,,
{16}1/8,,3,2,3,4,3,,6,7,6,5,{4}6h[4:1],
{8}5,5-3v2-8[8:3]/4,{4},,{16},,4,4,
{16}8,,2,1,3,,5,4,5,,7/2,,3,6,3,6,
{8}4,5/4>2-6<8[8:3],{4},,,
{16}6/2,,8,1-4[8:1],7,,7,1,,,7,,5,6,5,6,
{8}4,4>2-7[8:3]/5,{4},,,
{16}6,5,7,4,8,,2,1,3,8,4,,6,5,7,4,
{8}8,1/8<6-2>4[8:3],{4},,,
{16}5/4,,7,6,7,8,7,,2,3,2,1,{4}2h[4:1],
{8}8,1-3v4-6[8:3]/8,{4},,{16},,8,8,
{16}4,,6,5,7,,3,4,3,,2/6,,7,1,7,1,
{8}8,,2,,5,3q8[4:1],,6,,,,6,2,4,,4>5[8:5],{1},
{8}7,8,1,2,8,1,2/6,3/7,,1,2/6<8-4[8:5],3>1-5[2:1]/7,,,,,,,,6,8p3[2:1],2,,2>1[8:5],{1},
{8}5,4,,,1,,{16}7,2,7,2,
{8}8/1h[4:1],,6h[4:1],,{32}E2,A2,E3,A3,E4,A4,A5,E6,A6,E7,A7,E8,3hx[2:1],,,,
{8},,,6,{32}5h[4:1]/D3,E3,A2,B2,D2,E2,A1,B1,D1,B8,A8,E8,D8,B7,A7,E7,
{8}D7/4>5[2:1],,,,{32}A4,B4,B3,E3,B2,B1,A1,A8,B8,B7,E7,B6,B5,A5,,,
{8},7,8,1,2-6[8:1],8-4[8:1],2,8,,1,8,1/7h[1:1],
{32}D1,E1,A8,B8,D8,E8,A7,B7,D7,B6,A6,E6,D6,B5,A5,E5,
{8}D5,,,5h[4:1],4h[4:1],2h[8:3],,8h[8:3],,,{16}1,,1,,1,8,1,8,1,8,1,8,
{16}2,7,3,6,4,5,4,5,3/6,,2/7,,1,1,8,8,
{16}1,2,3,4,1,2,3,4,8,7,6,5,8,7,6,5,
{16}1,2,3,4,5,6,7,8,4,3,2,1,8,7,6,5,
{16}8,7,6,5,8,7,6,5,1,2,3,4,1,2,3,4,
{16}8,7,6,5,7,6,5,4,6,5,4,3,2,1,8,7,
{16}4,5,6,7,4,3,2,1,5,6,7,8,5,4,3,2,
{16}4,5,6,7,1,2,3,4,6,7,8,1,2,3,4,5,
{8}6/2,6/2,7/3,7/3,{16}4,8,4,8,3,7,2,6,
{16}1b,E2,E3,E4,E5,E6,E7,E8,D1,D2,D3,D4,D5,D6,D7,D8,
{1}D1/7hx[1:1],5h[1:1],4h[1:1],2h[1:1],
{4}8h[1:1],B8,B6,B4,1h[1:1],B1,B3,B5,
{8}6h[1:1],A4,A3,A2,A1,A8,A7,A6,
{4}A5/E5f/D5f/A4/B5/B4,,,{16}5,4,5,4,
{16}3/6,,5,4,7,,2-5[8:1],1,,1,2b,,7,,6,4,
{16}6,,4,5,2,,7-4[8:1],8,,8,7b,,2,,3,5,
{16}3,,5,4,7,,2-5[8:1],1,,1,2b,,7,,6,4,
{16}6,3,7,2,8,,3,6,2,7,1,,8,1,8,1,
{16}2/7,,1,8,3,,6<1[8:1],5,,5,6b,,3,,2,8,
{16}2,,8,1,6,,3>8[8:1],4,,4,3b,,6,,7,1,
{16}7,,1,2,3/6,,7,7b,,2,2b,,6/3,,1,7`,
{16}1,5,3,7,4,8,2,6,1,5,3,7,1,8,1,8,
{16}2/7,,3,7,2,6,1b>4[8:1],5,,,1/8,,7,,6,6,
{16}4,,6,2,7,3,8b<5[8:1],4,,,1/8,,2,,3,3,
{16}5,,3,7,2,6,1b>4[8:1],5,,,1/8,,7,,6,3,
{24}5,4,5,{16}4,6,3,,7,2,5,4,8,,1,8,1,8,
{16}2/7,,2,3,4/8,,7,7b,,2,2-5[8:1]/6,,5,,2/7,,
{16}8,,7,6,5/1,,2,2b,,7,7-4[8:1]/3,,4,,2/7,,
{16}1,,1,2,3/6,,8,,8,7,6/3,,8b/1b,,5,1,
{16}5b,1,5,2,5,3,5,4,6,4,7,4,8,8,4,4,
{16}8,,4,6,2,,7-4[8:1],8,,8,7b,,2,,3,5,
{16}1,,5,3,7,,2-5[8:1],1,,1,2b,,7,,6,4,
{16}8,,4,6,2,,7-4[8:1],8,,8,7b,,2,,3,5,
{16}1,8,3,6,2,,8,1,6,3,7,,4,5,4,5,
{16}3/6,,3,4,1,,7,1,,2,8,,3/6,,5,4,
{16}3/6,,6,5,8,,2,8,{12}7b/3b,7/3,7/3,2/6,2/6,2/6,
{4},{8}1/8,,4/5,3qq5[8:3],,6h[8:3],,,,6,2/6,4,,4,
{16}2/6,,4,5-8[8:1],3,,3,5,,,3,,1,2,1,2,
{8}8,4,3,2,5/1,6/2,7/3,8/4,
{16}2,1,3,8,4,,6,5,7,4,8,,2,1,3p1[4:1],8,
{8}4,,,6,1/8,2,,2,
{16}1/8,,3,2,3,4,3,,6,7,6,5,{4}6h[4:1],
{8}5<8[4:1],,B4/B5/E5,C,{16}E2,E3,E4,,B8/B1/E1,,,,
{4}B3/B6,{8}1/8,,4/5,3qq5[8:3],,6h[8:3],,,,6,2/6,4,,4,
{16}6/2,,8,1-4[8:1],7,,7,1,,,7,,5,6,5,6,
{8}4,8,7,6,1/5,2/6,3/7,4/8,
{16}6,5,7,4,8,,2,1,3,8,4,,6,5,7pp1[4:1],4,
{8}8,,,6,1/8,2,,2,
{16}5/4,,7,6,7,8,7,,2,3,2,1,{4}2h[4:1],
{8}1>4[4:1],,B8/B1/E1,C,{16}E6,E7,E8,,B4/B5/E5,,,,
{16}B2/B7,,5,4,5,,8,7,,7,1hb[4:1],,8,,8,7,
{16}6/3,,4,5,4,,1,2,,2,8hb[4:1],,1,,1,2,
{16}6/3,,5,4,5,,8,2,,1,7hb[4:1],,8,,8,7,
{16}8,6,1,5,2,,1,3,8,4,7,,1,8,1,8,
{16}7/2,,1,8,1,,4,3,,3,5hb[4:1],,4,,4,3,
{16}2/7,,8,1,8,,5,6,,6,4hb[4:1],,5,,5,6,
{16}2/7,,2,3,4/5,,6,6b,,3,3b,,2/7,,8,1,
{16}8,4,7,3,6,,1,5,2,6,3,,8,1,8,1,
{16}7/2,,6,3,7,2,8,1hb[16:3],,,7,,6,,4,4,
{16}5,,3,6,2,7,1,8hb[16:3],,,2,,3,,5,5,
{16}4,,6,3,7,2,8,1hb[16:3],,,7,,6,,3,6,
{24}4,5,4,{16}5,3,6,,2,7,1,8,2,,8,1,8,1,
{16}7/2,,6,5,6,,1,8,,8,2hb[4:1],,1,,1,2,
{16}1,,3,4,3,,8,1,,1,7hb[4:1],,8,,8,7,
{16}8,7,1,6,2,5,3,4,2,1,3,8,4,7,5,6,
{16}1,8,2,7,3,6,4,5,3,6,2,7,1,1,8,8,
{1}1h[1:1],
E
