&title=RED C91F37 Rave
&artist=AKR-001
&first=1.07
&des=AKR-001
&lv_5=14
&inote_5=(172)
{16}1b/8b-5b[2:1]*z4b[2:1],,,,,,,,,,,,,,,,,,,,,,,,,,,,,,,,4b<1b[2:1]/6b,,,,,,,,,,,,,,,,,,,,,,,,,,,,,,,,1b/8b-5b[4:1]*z4b[4:1],,,,,,,,,,,,,,,,6b-1b[4:1]/4b-1b[4:1],,,,,,,,,,,,,,,,8b-5b[8:1]/2b-5b[8:1],,,,,,,,4b^6v8b[8:1]*<8b[8:1]/5b,,,,,,,,1bw5b[8:1],,,,1b,,,,3,6,2,5,
{32}2b,3,4,5,6,7,8,1,
{16}2b/6b,,3,7h[16:1],,2,6h[16:1],,2-6[8:1],,7-3[8:1],,2,,7,,2h[8:1],,5,3,6,4,7,5,6-2[8:1],,4-8[8:1],,6,,4,,7h[8:1],,8,6,1,5,2,4,2-6[8:1],,4-8[12:1],,2,,4,,3x,1x,2x,8x,1,7,8,6,8x-4[12:1],,7x-3[12:1],,8x,,7x,,2bx,4x,3x,5x,4,6,5,7,5-1[8:1],,7-3[8:1],,5,,7,,2x,2x,4x,4x,3,3,5,5,4-8[8:1],,6-2[8:1],,4,,6,,1x,8x,7x,6x,8x,7x,6x,5x,7x,6x,5x,4x,6x,5x,4x,3x,1bx/2bx,,7,7b/8b,,2,2b/4b,,7b-3b[8:1],,3bw7b[8:1],,7b,,Cf,,,,,,4b/5,,,,4,5,4,,3b/6b,,,,45,,7b/8,,63,,1b/2,,4,5,4,,7b/2b,,,,6b/3b,,2,1b/2b,,7,7b/8b,,8bx/1,7/2bx,6bx/3,,4bx/5b,,,,2,1,2b,,7,8,7b,,8bx/1,7/2bx,6bx/3,,4bx/5b,,,,4,5,4,,6b/3b,,3,6,4x/5x,,8b/1,,2b/7,,,,4b/5,,1b/2b,,4b/5,,7b/8b,,8bx/1,7/2bx,6bx/3,,4bx/5b,,,,3b,4,3,5,2bx,5,2bx,5,1bxw5b[8:1],6bx,1bx,,1bx,,,,5bx/4x,,1b/2,,4b/3,,7b/8,,5b/6,,1b/8,,7b/2,,,,64,,8,,64,,2,,64,,8,,7h[1:1],,,,B2,,B4,,C,,B5,,B7,,E7,,C,,,,35,,1,,35,,7,,35,,1,,2h[1:1],,,,E7,,B5,,C,,B4,,B2,,1bx,,1bx,,,,7-5[8:1],,7,,1-3[8:1],,1,,8-6[8:1],,8,,2-4[8:1],,2,,8V64[12:1]*^7-5-3[12:1],,8V24[12:1]*^1V35[12:1],,8,,,,,,7,,8-4[8:1],,1,,2,,3-8[8:1],,4x,,5x,,6x-1[8:1],,8x,,8x,,,,18,,3b,,18,,6b,,18,,7b/2,,3b/6,,,,4,,6h[8:1],,3,5,2,4h[8:1],,,2,5,3,,6,,3-8[8:1],,5,,3,,6,6,,,1-5[12:1],8,2,,1,,3-7[12:1],,4,,3,,5,5,8,5,8,5,1,4,1,4,2h[8:1],,3,,2h[8:1],,3,2h[16:5],,,,,4b,,,,2,4,3,5,4,6,5,7,6-2[12:1],,6,,68,,,,8,6,7,5,6,4,5,3,4-7[8:1],,4,,14,,,,2b,4,3,5,4,6,5,7,7b,5,6,4,5,3,4,2,
{32}2b,3,4,5,6,7,8,1,2,3,4,5,6,7,8,1,2b/7b,6,5,4,3,2,1,8,7b,6,5,4,3,2,1,8,7bv5-8<1q8[16:52]/2bv4-1>8p1[16:52],,,,,,,,,,,,,,,,,,,,,,,,,,,,,,,,,,,,,,,,,,,,,,,,,,,,,,,,,,,,,,,,
{16},,,,,,,,,,,,,,,,,,,,,,,,,,,,,,,,1bh[1:1],,3,,,,3,,,,3,,,,3,,8bh[1:1],,6,,,,6,,,,6,,,,6,,2bh[2:1],,4,,,,4,,7bh[2:1],,5,,,,5,,4b,,6b/5,6/5b,,4b/3,3b/4,,4b-1b[12:1],5b-8b[16:1],4b,,4b/5b,,,,72,,1,8,2,7,3,6,2-6[12:1],,7-3[12:1],,2,,7,,2,4,3,5,4,6,5,7,6^3[12:1],,6^1[12:1],,6,,,,2,1,3,8,4,7,5,6,5-2[12:1],,5-8[12:1],,5,,,,1h[8:1],,8b,1h[8:1],,8b,1bh[4:1],,8b,,8b,,1b,,1b,,1b/8b,,2,7,3,6,2,7,1-3[12:1],,8-6[12:1],,1,,8,,5b/4b,,3,6,2,7,3,6,4-2[12:1],,5-7[12:1],,4,,5,,1b/8b,,1,8,2,7,3,6,4bx/5bx,,4,5,3,6,2,7,1bx/8bx,,1bx/2bx,1bx/2bx,,7bx/8bx,7bx/8bx,,1-4[8:1],,8-5[8:1],,1>1-3-5-7-1[16:32],,8,,1b,,,,,,,,,,,,,,,,,,,,,,,,,,,,1b^3^5^7^1-3-5-7-1^2-4-6-8^1[1:2]*^3^5^7^1-3-5-7-1^2-4-6-8^1[1:2],,,,,,,,,,,,,,,,,,,,,,,,,,,,,,,,1b>1-3-5-7-1b[16:16],,,,,,,,,,,,,,,,1b^3^5^7^1-3-5-7-1^2-4-6-8[32:30],,,,,,,,,,,,,,,,,,,,
{32}1bx,2x,3x,4x,5x,6x,7x,8x,1bx,2,3,4,5,6,7,8,1bx,2,3,4,5,6,7,8,1bx,2,3,4,5,6,7,8,1bx-4b[12:1]/5bx-8[12:1],,,,,,,,,,,,,,,,
{16}1b-6[12:1]/5-2b[12:1],,1b/5,,5b/1,,,,4/5b-1[12:1],,6,,4b-8[12:1]/5,,3,,4b/5,,6b,,7b,,1,8,2,1,2b-5[12:1],,6,6b,2b,,7b-4[12:1],,8,8b,7b,,1b,,7b/2,3b/6,5b/4,,4b-8[12:1],5,4,,5b-1[12:1]/4,,6,,5b/4,,,,2,1,2,1,3,8,3,8,4bw8[12:1],,4,,4b,,,,
4x/5bx-1[12:1],,6x,,4bx-8x[12:1]/5x,,3x,,4bx/5,,6bx,,7bx,,1,8,2,1,2bx-5[12:1],,6,6bx,2bx,,7bx-4[12:1],,8,8bx,7bx,,1bx,,7bx/2,3bx/6,5bx/4,,4bx-8[12:1],5,4,,5bx-1[12:1]/4,,6,,5bx/4,,,,2,1,2,1,3,8,3,8,4bxw8[12:1],,4,,4b,,,,1,5,2,6,3,7,4,8,4-1[12:1],,8v5[12:1],,4,,8,,1,6,2,7,3,8,4,1,4-2[12:1],,1p5[12:1],,4,,1,,2,4,3,5,4,6,5,7,5-2[12:1],,7-4[12:1],,5,,7,,3b,,6,6b/5,,3,3/4b,,75,,24,,86,,13,,2b/7b,,1,8,2,7,3,6,4-8[12:1],,5-1[12:1],,4,,5,,2,8,3,7,4,6,3,7,2-5[12:1],,8-4[12:1],,2,,8,,2b,5,3,5,3,5,3,5,1b,5,3,5,3,5,3,5,1b,5,1bx,5,1bx,5,1bx,5,
{32}1b,2,3,4,5,6,7,8,1,,,,,,,,
{16}7bx/2bx,,3h[8:1],4,,8h[8:1],7,,7x/2x,,6h[8:1],5,,1h[8:1],2,,7x/2x,,3h[8:1],4,,8h[8:1],7,,7x/2x,,6h[8:1],5,,1h[8:1],2,,2,7,2,7,2,7,2,7,
{32}2,3,4,5,6,7,8,1,2,3,4,5,6,7,8,1,
{16}2b/7b,,2b/7b,,2b/7b,,2b/7b,2b-6b[12:1]/7b-3b[12:1],,,,,Cf,
