&title=Stardust:Ray
&artist=kanone vs. BlackY
&first=0.23
&lv_5=14
&des_5=empite
&inote_5=
(164){4},,,,B7/B6/E7/Cfh[4:3],
{16},,,,,,,,8,7,6,5,
{4}4/1b,{16}1,2,3,4,5/8,,,4/7,,,{8}3/6>7[8:5],
,,,,,,,,{4}2/5b,
{16}5,6,7,8,5/1V75[8:1],,,4,,,{8}3,
{16}6/2s6[8:3],,,7,,,{8}8,,,,,{4}8b/Cfh[4:1],
{16}8,7,6,5,4/1,,,5/2,,,{8}6/3<2[8:5],
,,,,,,,,{4}7/4b,
{16}4,3,2,1,4/8V24[8:1],,,5,,,{8}6,
{16}3/7z3[8:3],,,2,,,{8}1,,,{4}C,
8<5[4:3],A4,A3,A2,
1pp5[4:3],A5,A6,A7,
8-6[4:1],6-4[4:1],4-8[4:1],8,
1>5[4:1],5<1[4:1],{2}1w5[8:1],
{8}2b/7,{16}3,4,2,4,{8}3,7b/2,{16}6,5,7,5,{8}6,
{16}3,4,2,2,6,5,7,7,{24}1x,2,3,8x,7,6,{32}4x,3,2,1h[32:13],5x,6,7,8h[32:9],
,,,,,,,,,,,,,,,,{16}1,8,1,8,{4}7/2,
{16}2/B5f,,,7/B4f,,,{8}3b/6b,,,{4}E5,
{8}3-5[8:1],7-4b[8:1],3V17[16:3],7,{4}3,{16}8x/4,1x/5,2x/6,3x/7,
{8}4-2[8:1],8,4V68[16:3],8,{4}4,{16}1x/5,2x/6,3x/7,4x/8,
{4}1V75[4:1],{8}4,{16}3,2,{8}1,1/7,{16},6/2,,,{2}8w4[8:1],
{12}5/4,3,2,1/8,7,6,
{4}5h[6:1]/4-7[8:1],5h[6:1]/4-1[8:1],5h[6:1]/4w8[8:1],4b,
{8}2h[8:1],{16}1,1,3h[8:1],4,5,6,{8}7h[8:1],{16}8,8,{8}1,8/2,
2/6,3/7,{16}2/6,3/7,{8}4/8,{16}4/8,7/3,6/2,5/1,{4}4/8,
{1}Cfh[4:3],
{8}2/5,{16}3,6,4,7,{8}5,{16}7-4[8:1],8,,8,{8}7,8,
1h[8:1],{16}3,4,5,6,7,8,{2}1-6[8:1]/5-2[8:1],
{8}7/4,{16}6,3,5,2,{8}4,{16}2-5[8:1],1,,1,{8}2,1,
8h[8:1],{16}6,5,4,3,2,1,8/4,,,6b/2b,,,,,{8}3/4,
2,{16}3,4,{8}2,{16}3,5,,4,{8}6,4,
5/6,{16}6,5,{8}7,1,{16}8,1,7,5,6,4,5,3,
6h[16:1],{32}8b,1,{16}2,7h[16:1],{32}1b,2,{16}3,8h[16:1],{32}2b,3,{16}4,1h[16:1],{32}3b,4,{16}5,{32}8,7,6,5,4,3,2,1,
{4}8/4V28[4:1],8V64[4:1],{2}4w8[8:1],
{8}5h[32:1],{128}3b,4x,,,,,,,,,,,,,,,3b,4x,,,,,,,,,,,,,,,3b,4x,,,,,,,,,,,,,,,{8}6h[32:1],{128}4b,5x,,,,,,,,,,,,,,,4b,5x,,,,,,,,,,,,,,,4b,5x,,,,,,,,,,,,,,,{8}4h[32:1],
{128}6b,5x,,,,,,,,,,,,,,,6b,5x,,,,,,,,,,,,,,,6b,5x,,,,,,,,,,,,,,,{8}3h[32:1],{128}5b,4x,,,,,,,,,,,,,,,5b,4x,,,,,,,,,,,,,,,5b,4x,,,,,,,,,,,,,,,{8}7h[32:1],
{128}4b,5x,,,,,,,,,,,,,,,4b,5x,,,,,,,,,,,,,,,4b,5x,,,,,,,,,,,,,,,{8}2h[32:1],{128}5b,4x,,,,,,,,,,,,,,,5b,4x,,,,,,,,,,,,,,,5b,4x,,,,,,,,,,,,,,,{4}6>3[4:1],
3>8[4:1],8<5[4:1],5,
{12}4,3,2,1/8,7,6,{2}4b-1[8:1]/5b-8[8:1],
{8}2-6[12:1],2x,1-5[12:1],1x,8-4[12:1],8x,7-3[12:1],7x,
6-2[12:1],6x,5-1[12:1],5x,4-8[12:1],4x,3-7[12:1],3x,
2,2/1,4/3,5/7,{2}8b/1b,
{16}4b,6,1,7,2,8,3,1,2x,4,3,5,4,6,5,7,
8x,6,5,6,1x,5,4,5,2x,4,3,4,{4}2b/5b,
{16}5b,3,8,2,7,1,6,8,7x,5,6,4,5,3,4,2,
1x,3,4,3,8x,4,5,4,7x,5,6,5,{4}7b/4b,
{16}2,4,3,7,5,6,1,4,3,8,5,6,4,5,4,4,
7,5,6,2,4,3,8,5,6,1,4,3,5,4,5,5,
{32}B1,B2,{16}4,3,{32}B8,B7,{16}5,6,{32}E2,B2,{16}4,3,{32}E8,B7,{16}5,6,4,5,4,5,
{24}2/5xh[12:1],3,{12}4,{48},7/3h[12:1],,6,,5,,,,,{8}2h[8:3]/6h[8:3],{32},,,,,,,,,E3f/E7f,B3f`B7f,B4f`B8f,{8}E5f`E1f,
{256}8b-2q5[2:7],2b-8p5[2:7],{1},,,{4},,,{16},,,{64},,,{128},{4}5/B2/B3,
{8}5/B7/B6,5,B3,5,{4}5/B7/B6,
{8}4/B7/B6,4,B3,4,{4}4/B7/B6,{8}4/B2/B3,4,
2/1,4/3,5/6,7/8,{16}1,8,3,4,1,8,5,6,
{24}4,3,2,1/8,7,6,5/3,2,1,8/7,6,5,{32}2b,3,4,5,6,7,8,1,{4}2/C,
1bh[8:1]/5bh[8:1],{16}5/1,6/2,3/7,4/8,1/5>2[16:3],,,2<7p4[16:13],,,{8}6h[8:7],
,,,,,,,,{4}4bh[8:1]/8bh[8:1],
{16}8/4,7/3,2/6,1/5,8/4V68[4:1],,,1,,,{8}3,
{16}5qq1[2:1],,,6,,,{8}7,,,,,{4}8bh[8:1]/4bh[8:1],
{16}4/8,3/7,6/2,5/1,8/4<7[16:3],,,7>2q5[16:13],,,{8}3h[8:7],
,,,,,,,,{4}1bh[8:1]/5bh[8:1],
{16}5/1,2/6,7/3,8/4,1/5V31[4:1],,,8,,,{8}6,
{16}4pp8[2:1],,,3,,,{8}2,,,,,{4}6h[4:3],
4,4,4,
3h[4:3],5,5,5,
5h[4:3],4,3,2,
1h[2:1],7,{2}5w1[8:1],
{16}5,3,5,3,6,4,6,4,7-1b[16:1],5,7,5h[16:1],{4}7b,
{16}4,6,4,6,3,5,3,5,2-8b[16:1],4,2,4h[16:1],{4}2b,
{32}4bx/2bx,5/3,6/4,7/5,,,,,5bx/7bx,4/6,3/5,2/4,{96},,,,,,,,,,,,{24}2,3,4,1,2,3,7,6,5,8,7,6,
{16}4,5,3,6,2,7,1,8,{32}2b,3,4,5,6,7,8,1,2,3,4,5,6,7,8,1,
{16}2-5[8:1],,,4,{8}2,6,{16}7-4[8:1],,,5,{8}7,3,
{16}1>4[8:1],,,5<8[16:1],{8}1,5,{4}1w5[8:1],1b,
{8}2b/7b,{24}2,3,4,{8}6/5-1[8:1],7,{4}5/6,{16}7,6,{8}5/2,
{16}3,4,{8}2h[16:1],{16}6,5,{8}7h[16:1],5,{24}4,5,3,{8}4,2,
{16}3,4h[8:1],,8,{8}7h[8:1],{16}2,1h[8:1],,5,{8}6h[8:1],{16}4,5,3,4,
1,8,3,4,1,8,5,6,3,2,{8}1/8,{24}7b,8,7,8,,,{8}7b/2b,
{24}7,6,5,{8}3/4-8[8:1],2,{4}4/3,{16}2,3,{8}4/7,
{16}6,5,7h[16:1],3,4,2h[16:1],5,4,{8}8h[8:1],{24}2,3,4,{4}5/6b,
{8}6h[32:1],{128}4b,5x,,,,,,,,,,,,,,,4b,5x,,,,,,,,,,,,,,,4b,5x,,,,,,,,,,,,,,,{8}3h[32:1],{128}5b,4x,,,,,,,,,,,,,,,5b,4x,,,,,,,,,,,,,,,5b,4x,,,,,,,,,,,,,,,{8}7h[32:1],
{128}1b,8x,,,,,,,,,,,,,,,1b,8x,,,,,,,,,,,,,,,1b,8x,,,,,,,,,,,,,,,{4}1w5b[8:1],1b,
{8}6h[8:1],{16}4,5,{8}3,{16}7,5,8,4,7,4,6,4,5,4,
1,2,5,4,7,4,{24}6,5,6,{16}4,7,2,7,1,8,1,8,
{8}1bh[8:1],{16}7,6,{8}5/2b,{16}3,4,2,5,1,6,8,7,4,5,
3,8,{24}2,1,2,{16}8,3,7,4,6b,5,8,3b,4,1,{8}C,
{2}4/5<8[400:199],E2f/B2/B1,
5/4>1[2:1],E8f/B8/B7,
{16}3x,3x,4,2,6x,6x,5,7,{32}1x,8x,1x,8x,1x,8x,1x,8x,{4}1x,
{32}3b/7h[16:1],4,{16}5,{32},,6b/2h[16:1],5,{8}4,{32}3b/7h[16:1],4,{16}5,{2}6bx/3bx,
{8}3/8,{16}2,1,{8}2>4[8:1],1,2b,{16},,,,7,6,
{2}1/5q8[2:1],{16}2,,,3,,,{8}4,
7/4,{16}6,5,{8}6<8[8:1],5,{2}6b,
{8}4h[8:1],{32}8b,7,6,5,4x,3,2,1,8x,7,6,5,{8}4/8h[8:1],{32}4b,5,6,7,8x,1,2,3,4x,5,6,7,
{8}8/2,{16}7,8,{8}7<5[8:1],8,7b,{16},,,,2,3,
{2}8/4p1[2:1],{16}7,,,6,,,{8}5,
2/5,{16}3,4,{8}3>1[8:1],4,{2}3b,
{8}5h[8:1],{32}1b,2,3,4,5x,6,7,8,1x,2,3,4,{8}5/1h[8:1],{32}5b,4,3,2,1x,8,7,6,5x,4,3,2,
{8}7b/1b,{16}6,4,5,3,4,2,{8}1b,{16}3,5,4,6,5,7,
{8}8b,{16}6,6h[8:1],,3,{8}3h[8:1],{16}4,5,6,7,5,4,3,2,
{8}6b/1b,{16}3,5,4,6,5,7,{8}8b,{16}6,4,5,3,4,2,
{8}1b,{16}3,3h[8:1],,5,{8}5h[8:1],{16}2,3,4,5,3,4,5,6,
{8}7b/1,{16}7,8,{8}7,7/5,2b/8,{16}2,1,{8}2,2/4,
7/8b,{16}5,6,{8}4,3/4,2/1b,{16}4,3,{8}5,6/5,
{16}4b,6,8,6,5,6,7,6,3b,1,3,5,3,2,3,4,
{32}2b,3,4,5,6,7,8,1,{4}6b/2-5[16:1],{16}2b/8-4[16:1],,,8b/1pp5[16:17],,,{8}1b/8h[8:9],
E
