&title=Selenadia
&artist=Lime
&first=0.97
&des=氷霧
&des_5=氷霧
&wholebpm=227.02
&demo_seek=11
&demo_len=33
&clock_count=4
&lv_5=14
&inote_5=(227.02)
{2}3>3[4:21],5h[384:1],
{2},7h[384:1],
{2},1h[384:1],
{2},7h[384:1],
{2},6h[384:1],
{2},8hb[384:1],
{32}2/6,,,,,,,,,,,,,,,,8b,1/7,2p8[16:51]/6p4[16:51]b,3/5,4b,,,,,,,,,,,,,,,,,,,,,,,,,,,,,,,,,,,,,,,,,,,,
{1},,
{4},,3>1-5[4:9]/7<5-1[4:9]b,,
{1},,
{8},,,,3,7,1,5,
{8}2,6,4,8,2b,2b-5[8:1],,6,
{8}6-1[8:1],,3,3-1[8:1],,8,8-4[8:1],,
{8}1w5[8:1],,1,,3,3-5[8:1],,7,
{8}7-1[8:1],,4,4-1[8:1],,8,8-5[8:1],,
{8}2-6[8:1],,2/7,,8,8-4[8:1],,2,
{8}2-6[8:1],,5,5<8[8:1],,1,1>4[8:1],,
{8}8w4[8:1],,8,,2,2>5[8:1],,6,
{8}6<1[8:1],,4,4-1[8:1],,8,8-5[8:1],,
{8}1w5[8:1],,1,,2/8,2/8,,1/7,
{8}1/7,,2/5,2/5,,4/7,4/7h[4:1],,
{32}E2,E3,E4,E5,E6,E7,E8,E1,E2,,,,,,,,4/6h[4:1],,,,,,,,4,,,,,,,,
{16}2h[4:1]/4,,,,4,,,,4/7h[4:1],,,,4,,,,
{16}1h[4:1]/4,,,,4,,,,2h[4:1],,,,4,,3,,
{16}5,,4,,6,,5,,7h[4:1],,,,5,,6,,
{16}4,,5,,3,,4,,2>4[8:1],,1,,2,,8<6[8:1],,
{16}1,,8,,3>1[8:1],,4,,3,,5<7[8:1],,4,,5,,
{16}8-4[8:1],,1,,2,,,,3h[4:1],,,,5,,5h[8:1],,
{24}3,,,3h[8:1],,,7h[4:1],,,,,,1,,2,,3,,7,,6,,5,,
{12}2,3,4,8,7,6,5/3h[4:1],,,5,,,
{16}5/7h[4:1],,,,5,,,,2h[4:1]/5,,,,5,,,,
{16}5/8h[4:1],,,,5,,,,7h[4:1],,,,5,,6,,
{16}4,,5,,3,,4,,2h[4:1],,,,4,,3,,
{16}5,,4,,6,,3,4,3>1[8:1],,4,,5,,6,,
{16}7<5[8:1],,8,,1,,2,,3-5[8:1],,7-1[8:1],,3,,7,,
{16}4-1[8:1],,8-5[8:1],,4,,8,,2-6[8:1],,8-4[8:1],,2-4-6-8[2:1]b,,8,,
{16},,,,B1/B2/E2,,,,,,,,1>4[8:1],,,,
{16}1<6[8:1],,,,1-5[8:1],,,,1,,,,7pp4[8:3],,3,,
{16}3h[4:3],,,,,,,,,,,,6,,7,,
{16}8,,2,1,2,,3/8,,4/7,,,,6qq1[8:3],,3,,
{16}3,,,,2,,3,,4,,6,5,6,,4/7,,
{16}1,,1h[8:1],,5,,5h[8:1],,2,,3,4,3,,2/5,,
{16}3,4,3,,2/5,,2/5,,1<6[8:1]/6,,,,1>4[8:1]/5,,,,
{16}1-5[8:1]/5,,,,1/3,,,,4h[4:1],,,,7p5[8:3],,3,,
{16}3,,,,1,,1,,2,3,4,5,6,7,8,1,
{16}2/7,6,5,4,3,2,1,8,4h[4:1]/7,,,,6-1-5-8[8:3],,3,,
{16}3h[4:3],,,,,,,,,,,,7,,6,,
{16}5,,3,4,3,,2/5,,1/6,,,,7-4-8-5[8:3],,2,,
{16}2,,,,3,,2,,1,,7,8,7,,1/6,,
{16}7,6,5,4,1,2,3,4,8,,2,1,2,,3/8,,
{16}2,1,2,,3/8,,2/7,,2-6[8:1]/7,,,,2/8-5[8:1],,,,
{16}4-1[8:1]/8,,,,4/6,,,,6,5,6,,4/7,,4/7,,
{16},,1/2,,3/8,,4/7,,5-8[8:1]/6,,,,5/2-6[8:1],,,,
{16}2/7-3[8:1],,,,4q5<4[4:15]b/7,,,,4bx/5hbx[4:15],,,,,,,,
{16},,,,,,,,,,,,,,,,
{16},,,,,,,,,,,,,,,,
{16},,,,,,,,,,,,,,,,
{16},,,,,,,,3h[4:1]/5h[4:1],,,,,,3/5,,
{16},,,,4-6-8-2-4[4:7]/6,,,,,,,,,,,,
{16},,,,,,,,,,,,,,,,
{12},,,,,,8,7,6,2,3,4,
{24}7,,6,,5,,1,,2,,3,,7,,,7<4[8:1],,,4,,,3,,,
{16}3>8[8:1],,,,6,,6-1[8:1],,1x,,2,,2-5[8:1],,,,
{16}7,,7-4[8:1],,4x,,3,,3-8[8:1],,,,5,,5-8[8:1],,
{16}8x,,1,,1-4[8:1],,,,7,,7-3[8:1],,3x,,2,,
{40}2>5[8:1],,,,,,,,,,6,,,,,6h[8:3],,,,,,,,,,,,,,,1b,,,2x,,,3x,,,4x,
{40},,5x,,,1b,,,8x,,,7x,,,6x,,,5x,,,2b,,,3x,,,4x,,,5x,,,6x,,,1b,,,2x,,
{40},3x,,,4x,,,5x,,,8b,,,7x,,,6x,,,5x,,,4x,,,1b,,,8x,,,7x,,,6x,,,5x,,,
{40}2b,,,3x,,,4x,,,5x,,,6x,,,2b,,,1x,,,8x,,,7x,,,6x,,,8b,,,1x,,,2x,,,3x,
{40},,4x,,,8b,,,7x,,,6x,,,5x,,,4x,,,2b-4-6-8-2[2:3]*>2b[2:3],,,,,,,,,,,,,,,,,,,,
{16},,,,,,,,,,,,,,,,
{12},,,,,,6,5,7,3,4,2,
{12}7,5,6,2,4,3,7b,,,,,,
{16}2-5[8:1]/6-1[8:1],,,,,,,,8x,,,,3-5[8:1],,5-7-3-1[800:341],,
{8}3,,,,,,6-4[8:1],4-8[8:1],
{32}6,,,,3,,,,2>4[8:1],,,,1,,,,7,,6,,5q6[2:1],,,,,,,,,,,,
{16}3,,3,,2,,2,,1,5,1,5,2,6,2,6,
{16}3/7,4,5,6,3/7,8,1,2,3/7,,,,2<7[8:1],,7-3<6[160:37],,
{16}2,,,,,,,,,,,,2-8[8:1],,7-4[8:1],,
{16}2,,7-2-5-8-4-7[1:1],,,,3/7,,,,,,1,,1,,
{16}2,,2,,3,,3,,4,8,4,8,3,7,3,7,
{16}2/6,1,8,7,2/6,5,4,3,2/6,,,,1-5[8:1],,5V73[1600:341],,
{16}1,,,,,,,,,,,,7-4[8:1],,2,,
{16}7-1[8:1],,1,,7-3[8:1],,3,,7b,,,,2b,,1b-4[8:1],,
{16},,4b,,5b<6<7>8>1>2>3<4b[2:1],,,,E5,E6,E7,E8,E1,E2,E3,E4,
{16}C,,,,2/6,,,,4/8,,,,7,,7,,
{16}1,2,3,4,1-5[8:1],8,7,6,1,,,,,,7h[8:3],,
{16},,,,1-5[8:1],,2/8,,1/3h[8:3],,,,,,6,,
{16}4,5,4,5,3,6,3,6,1,2,3,4,1,8,7,6,
{16}1,2,3,4,1/5,6,7,8,1x-6[8:1]/5x,,,,
{8}1,7x,8x-4[8:1],8,4,3,2xq6[8:1],2,1-5[8:1],1x,8x-4[8:1],8,7p3[8:1],7,
{8}2x-5[8:1],2,6-1[8:1],6x,4x-8[8:1],4,7-4[8:1],7,
{16}1x,,2,,3-7[8:1],,4x,,5x-8[8:1]*-2[8:1],,,,,,,,
{8}1bx>4[8:1],8<5[8:1],1,8x,2x-5[8:1],1-6[8:1],2,1,8bx-3[8:1],7-4[8:1],8,7x,1x,8,27,36,
{16}4,5,4,5,3,6,3,6,2,7,2,7,1,8,1,8,2hbx[8:4]/7x,,,,,,,,
{8}4hx[8:4],,,8,8bv1>2v5>4-8b[4:13]*v7<6v3<4-8b[4:13],,,,
{1},,,
{4},,
{8}2,2h[8:2],,4,4h[8:2],,5pp1[8:7]*qq1[8:7],,,,,,,,,,,,
{8}7h[8:3],,,5h[8:3],,,4,3,5,6h[8:3],1,2,3,4,
{8}5-2[8:1],7,5,8-3[8:1],1,8,2,2,5>2[8:1],6,7,8,1<6[8:1],2,3,4,
{8}5v2[8:1],7,5,8v3[8:1],1,8,2,2,5-2[8:1],6,7,8,1-6[8:1],2,3,4,
{8}5<8[8:1],4,5,2-5[8:1],1,2,8,7,6<1[8:1],5,4,3,2>5[8:1],1,8,7,
{8}6-1[8:1],6,5-1[8:1],5,4-8[8:1],4,3-8[8:1],3,7,7,6,5,
{32}1,2,3,4,5,6,7,8,1b,,,,,,,,
{8}1-6[8:1],5,1,7,
{24}8x,1,2,3,4,5,
{8}6/2x,2,
{8}8-3[8:1],4,8,2,
{24}1x,8,7,6,5,4,
{8}3/7x,7,
{16}2x,1,3,1,2,,3x,,
{24}8x,1,2,3,4,5,
{16}61,2,3,,
{16}7x,8,6,8,7,,6x,,
{24}1x,8,7,6,5,4,
{16}38,7,6,,
{16}2,7,1,8,2,7,1,8,
{16}2bx,3bx,7bx,6bx,3,4,6,5,2,7,2,7,1,8,1,8,2bx,3bx,7bx,6bx,3,4,6,5,
{16}2,7,1,8,1,8,2,7,2bx,3bx,7bx,6bx,3,4,6,5,
{24}2x,3,4,7x,6,5,1bx,2,3,8bx,7,6,
{32}2b,3,4,5,6,7,8,1,2,3,4,5,6,7,8,1,
{8}2/6x,6x-2-6[8:2],,4,4-1-4[8:2],,8,8-4-8[8:2],,1,1,,
{16}2b-7-2[4:1]b/6b-3-6[4:1]b,,4b/8b,,2b/6b,,,,,,,,,,,,E
