&title=Alexandrite
&artist=onoken
&first=0
&des=Dororo
&lv_5=14
&inote_5=(175)
{1},
{16}2h[8:3],,,,,,3h[8:3],,,,,,4h[8:3],,,,
{16},,5h[8:3],,,,,,6,,E8,,E2,,E1,,
{16}3h[8:3],,,,,,2h[8:3],,,,,,1h[8:3],,,,
{16},,8,,,,37,,,,5,,5,3,6,2,
{16}7h[8:3],,,,,,6h[8:3],,,,,,5h[8:3],,,,
{16},,4h[8:3],,,,,,3,,E2,,E8,,E1,,
{16}6h[8:3],,,,,,7h[8:3],,,,,,8h[8:3],,,,
{16},,1h[2:1],,,,3h[4:1],,,,,,1/3^6[8:1],,,,
{16}6x,,,,,,8,,8h[4:1]/E5/B5,,,,2-5[8:1],,,,
{16}6,,7-4[8:1],,,,3,,2h[4:1],,,,D2,D1,D8,D7,
{16}D6/2x,,,,,,3,,3h[4:1]/E5/B5,,,,6,,7-3[8:1],,
{16},,5-2[8:1]*-8[8:1],,,,,,,,37,,2,8,2,8,
{16}3x,,,,,,2,,2h[4:1]/E5/B4,,,,7-1[8:1],,,,
{16}2,,3-5[8:1],,,,6,,7h[4:1],,,,D8,D1,D2,D3,
{16}D4/7x,,,,,,6,,6h[4:1]/E5/B4,,,,2,,1-4[8:1],,
{16},,1-6[8:1],,,,,,,,37,,4,6,3,7,
{16}2^5[8:1],,,,6,,8^5[8:1],,,,4,,2^5[8:1],,,,
{16}6,,8^5[8:1],,2^5[8:1],,,,,,6,,6,4,7,3,
{16}8-4[8:1],,,,2,,1-6[8:1],,,,5,,4-8[8:1],,,,
{16}1,,2-5[8:1],,8x,,,,{12}6,6,4,8,8,2,
{16}7^4[8:1],,,,3,,1^4[8:1],,,,5,,7^4[8:1],,,,
{16}3,,1^4[8:1],,7^4[8:1],,,,,,3,,3,5,2,6,
{16}1v2[8:1],,,,6,,5v6[8:1],,,,3,,2v3[8:1],,,,
{16}7,,6v7[8:1],,4,,3,,{12}2x,2x,8x,{16}3b/7b,,,,
{16}2h[4:1],,4,,5,,3h[4:1],,5,,6,,4^1[8:1],,,,7,6,5,4,3,2,1,8,
{16}7xh[4:1],,5,,4,,6h[4:1],,4,,3,,5^8[8:1],,,,2,3,4,5,6,7,8,1,
{16}2x,,5,,12,,5,,2,,56,,
{16}7x,,4,,87,,4,,7,,43,,
{16}2x,6,2,6,2,6,1x,7,1-6^7s3^2-5[4:9],7,1,7,
{16}8bh[4:9],,,,,,,,,,,,,,,,,,,,
{16},,,,,,,,,,,,,,,,,,,,
{16}3,,3,,,,5,,5/E4,,,,7,,7,,
{16},,3,,3,,,,5/E4,,,,,D8,D7,D6,
{16}3,,3,,,,1,,1/E4,,,,7,,7,,
{16},,3,,3,,,,1xh[32:1]/E4,,,,,,,,
{16}6,,6,,,,4,,4/E6,,,,2,,2,,
{16},,6,,6,,,,4/E6,,,,,D2,D3,D4,
{16}8,,8,,8,,8,,8-4[8:1]/E6,,,,2,,2-6[8:1],,
{16},,5,,5p4[3:1],,,,3,,3xbh[4:1],,,,,,
{16}1,,2h[8:1],,3,,7,,6h[8:1],,5,,2,,3h[8:1],,
{16}4,,8,,7h[8:1],,6,,E5,,E1,,2x,7,2,7,
{16}1,,3h[8:1],,5,,6,,8h[8:1],,2,,3,,5h[8:1],,
{16}7,,8,,2h[8:1],,4,,6-1[8:1]/5-2[8:1],,,,,,,,
{16}8,,7h[8:1],,6,,2,,3h[8:1],,4,,7,,6h[8:1],,
{16}5,,1,,2h[8:1],,3,,E5,,E1,,7x,2,7,2,
{16}6x-3[8:1],,3,,4,,2x-6[8:1],,7,,6,,8x-3[8:1],,2,,
{16}3,,1x-5[8:1],,6,,5,,7x,,2bh[4:1]/6bh[4:1],,,,,,
{16}3,5,2,6,1,7,8pp8[4:1],,{24}2,3,4,{16}5x,,,,,,
{16}6,4,7,3,8,2,1qq1[4:1],,{24}7,6,5,{16}4x,,,,,,
{12}3,3,7,5,5,1,{16}4w8[8:1],,37,,,,,,
{16}6,4,7,3,8,2,1s5[4:1],,{24}7-3b[8:1],6,5,{16}4b,,,,,,
{16}2,8,3,7,4,6,5qq6[4:1],,{24}3,2,1,{16}8x,,,,,,
{16}7,1,6,2,5,3,4pp3[4:1],,{24}6,7,8,{16}1x,,,,,,
{12}2,2,6,8,8,4,{16}1w5[8:1],,26,,,,,,
{16}7,1,6,2,5,3,4,,{32}2,1,8,7,6,5,4,3,{16}2b/6b,,,,
{16}2,4,3,5,4,6,5,7,4-8[8:1],3,2,1,8,,,,
{16}7,5,6,4,5,3,4,2,5-1[8:1],6,7,8,1,,,,
{12}2,2,6,8,8,4,{24}1p4[8:1]*q6[8:1],2,3,5,6,7,{16},,,,
{16}7,8,6,1,5,2,4,3,5,4,6,5,{32}7,8,1,2,3,4,5,6,
{16}2b-5[8:1]/7,,2,,6-2[8:1],,6,,1-6[8:1],,1,,5-1[8:1],,5,,
{16}3,,3,,{24}7,6,5,4w8[8:1],3,2,{16}1,,4b,,,,6x/2x,,
{16}6<6b[2:14]/2>2[2:14],,,,,,,,,,,,,,,,
{16},,,,,,,,,,,,,,,,
{16},,,,,,,,,,,,,,,,
{16},,,,,,,,,,,,,,,,
{16},,,,,,,,,,,,,,,,
{16},,,,,,,,,,,,,,,,
{16},,,,,,,,,,,,,,,,
{16},,,,,,,,,,,,,,,,
{16}2,,3,,4,,5,,3,,4,,5h[8:3],,,,
{16},,6h[8:3],,,,,,7h[4:1],,,,8,,,,
{16}3,,4,,5,,6,,4V62[4:3],,5,,6-1[2:1],,,,
{16},,,,,,,,,,,,8,,1,,
{16}7,,6,,5,,4,,6,,5,,4h[8:3],,,,
{16},,3h[8:3],,,,,,2h[4:1],,,,1,,,,
{16}27,,,,,,36,,,,,,{48}4x^7[4:3]/5x^2[4:3],E6,E5,{16}E4,,,
{16},,,,,,,,,,,,,,,,
{16}7-4[8:1],,8,,3,,1-4[8:1],,8,,5,,7-4[8:1],,8,,
{16}3,,1-4[8:1],,5,,7,,1,,3,,3,5,2,6,
{16}1-5[8:1],,5,,7,,8-3[8:1],,2,,4,,5-1[8:1],,1,,
{16}6,,7-4[8:1],,2,,8,,{12}1,1,5,3,3,7,
{16}2-5[8:1],,1,,6,,8-5[8:1],,1,,4,,2-5[8:1],,1,,
{16}6,,8-5[8:1],,4,,2,,8,,6,,6,4,7,3,
{16}8v7[8:1],,1,,3,,4v3[8:1],,2,,6,,7v6[8:1],,4,,
{16}2,,3v2[8:1],,5,,6,,{12}7x,7x,1x,{16}6b/2b,,,,
{16}7h[8:3]/1,,5,,3,,8h[8:3],,6,,4,,1h[4:1],,,,2,3,4,5,8,7,6,5,
{16}2h[8:3],,4,,6,,1h[8:3],,3,,5,,8h[4:1],,,,7,6,5,4,1,2,3,4,
{16}7x,,2,,87,,4,,6,,43,,
{16}2x,,7,,12,,5,,3,,56,,
{16}7x,3,7,3,7,3,8x,2,8-2-6-4[4:9],2,8,2,
{16}1bs5[1:2],,,,,,,,,,,,,,,,,,,,
{16},,,,,,,,,,,,,,,,,,3b/6b,2,1,8,7,6,
{16}2,4,3,5,4,6,5,7,1,,28,,{24}7,6,5,1,2,3,
{16}7,1,6,2,7,1,5,3,8,,71,,{24}2,3,4,8,7,6,
{12}1h[12:1],7h[12:1],5h[12:1],1h[12:1],3h[12:1],7h[12:1],{16}5,,64,,{24}3,2,1,7,6,5,
{16}8,7,1,6,2,5,3,4,1w5[8:1],,2b/8b,,,,,,
{16}7,5,6,4,5,3,4,2,8,,71,,{24}2,3,4,8,7,6,
{16}2,8,3,7,2,8,4,6,1,,28,,{24}7,6,5,1,2,3,
{12}8h[12:1],2h[12:1],4h[12:1],8h[12:1],6h[12:1],2h[12:1],{16}4,,35,,{24}6,7,8,2,3,4,
{16}6,5,7,4,8,3,1,2,4,,3b/5b,,{24}1,2,3,7,6,5,
{16}2,8,2,8,3,7,4,6,5,4,3,2,8,7,6,5,
{16}1,7,1,7,2,6,3,5,4,3,2,1,7,6,5,4,
{12}2h[12:1],8h[12:1],5h[12:1],7h[12:1],1h[12:1],4h[12:1],{24}2,1,8,7,6,5,2,1,8,7,6,5,
{16}3,4,3,4,2,5,1,6,{32}2,3,4,5,6,7,8,1,{16}2b/6b,,,,
{16}1,7,1,7,2,6,3,5,2,8,2,8,3,7,4,6,
{16}8,7,8,7,1,6,3,5,2,1,2,1,3,8,4,6,
{12}1h[12:1],7h[12:1],5h[12:1],8h[12:1],2h[12:1],4h[12:1],8bh[12:1],7bh[12:1],5bh[12:1],1bh[12:1],3bh[12:1],4bh[12:1],
{24}2,1,8,7,6,5,3,2,1,8,7,6,{16}51,,7b^4b[8:1]/3b,,,,{24}3x/D6f,2,1,
{16}8bz4[2:7]*s4[2:7],,,,,,,,,,,,,,,,
{16},,,,,,,,,,,,,,,,
{16},,,,,,,,,,,,,,,,
{16},,,,,,,,,,,,,,,,
{16}2h[8:3],,,,,,4h[8:3],,,,,,6h[8:3],,,,
{16},,8h[8:3],,,,,,1,,E6,,E4,,E5,,
{16}3h[8:3],,,,,,1h[8:3],,,,,,7h[8:3],,,,
{16},,5-8[2:3],,,,4-1[4:5],,,,,,,,,,
{16},,,,,,,,,,,,,,,,
E
