&title=Cristalisia
&artist=onoken
&first=0
&des_2=albertoBradish
&lv_2=4
&des_3=albertoBradish
&lv_3=7
&des_4=albertoBradish
&lv_4=11
&des_5=albertoBradish
&lv_5=13+
&des_6=albertoBradish
&lv_6=14
&des=albertoBradish
&clock_count=4
&inote_2=(134){4},,,,,,,,{1}1,
,2,
,3,
,4,
{2},,5,
5,
4,4,
6,6,
3,3,
7,7,
2,2,
8,8,
1,1,
8x/1x,2,
3,4,
5x/4x,6,
7,8,
1/2,3,
4,5,
7/8,6,
5,4,
{1}3-6[4:5],
,7-2[4:5],
,4>1[4:5],
,5<8[4:5],
,1b,
,,,C,
{2},,E7,
C,
{1}E3,
{2}E5,C,
{1}Ch[2:1],
{2},,,,1b,
1,
2,2,
3,4,
{1}6h[16:11]/5h[16:11],
{2}8,8,
7,7,
6,5,
{1}3h[16:11]/4h[16:11],
{4},8,,7,
,6,,5,
,4,,3,
,2,,1,
,5,,6,
,7,,8,
,1,,2,
,3,,4,
{2}5b/4b,5/4,
6/5,3/4,
5/4,5/4,
6/5,3/4,
5,3,
6,2,
7,7/1,
{1}2-6[2:1],
{2}6,6/4,
{16}8-4[16:7],,,,,,,,,,,Cf,
E
&inote_3=(134){4},,,,,,,,{1}8b/1b,
{2},,,,,,4,
4/5,
5,5/4,
3,4/5,
{1}6-3[2:1],
{4}8,8,{2}8,
{4}1,1,{2}1,
{4}7,7,{2}7,
{4}2,2,{2}2,
{4}7/8,7,{2}7,
{4}2/1,2,{2}2,
{4}6/5,6,{2}6,
{4}3/4,3,{2}3,
{4}7h[2:1],1,{2}1,
{4}2h[2:1],8,{2}8,
{4}7h[2:1],8,{2}8,
{4}2h[2:1],1,{2}1,
{4}6h[2:1],8,{2}8,
{4}3h[2:1],1,{2}1,
{4}5h[2:1],8,{2}8,
{4}4h[2:1],1,{2}1,
{4}6/5,5/6,{2}5/6,
{4}3/4,4/3,{2}4/3,
{4}7/6,6/7,{2}6/7,
{4}2/3,3/2,{2}3/2,
{4}7/8,8/7,{2}7/8,
{4}2/1,1/2,{2}2/1,
{4}7,7,2,2,
8,8,1/8,1/8,
{1}2b/7b,
{2},,,,,,3h[2:1],
4,
6h[2:1],5,
3h[2:1],6h[2:1],
1h[2:1],5h[2:1],
{1}2h[1:1],
{4}6,7,{2}4/8-4[4:7],
{4},,,,,,,,1b/2b,
2,3,3,
4,4,{2}5/4,
{4}7/8,7,6,6,
5,5,{2}4/5,
{4}1/2,1,8,8,
7,6,{2}5/4,
{4}8/7,8,1,1,
2,3,{2}4/5,
{4}7h[2:3],8,1,2,
3,4,{2}4,
{4}2h[2:3],1,8,7,
6,5,{2}5,
{4}4,4,6,6,
2,2,7,7,
1,1,8,8,
1/7,1/7,{2}2/8,
{4}5/4,5/4,5,5,
1,1,{2}1/7,
{4}1/8,1/8,1,1,
5,5,5/3,3,
7,8,1,2,
3,4,{2}5/6,
{8}2,2,{4}2,{8}8,8,{4}8,
3/4,{16}4,,,5,,5,,5,,,,,{8}7,
7,{4}7,{8}1,1,{4}1,
6/5,{16}5,,,4,,4,,4b-8[16:33],
E
&inote_4=(134){4},,,,,,,,{1}Cf,
{2},1h[2:1],
{1}7h[1:1],
{4}5,4,3,2,
{2}1/4h[2:1],{8}3,3,,,{2}5h[2:1],
{8}4,4,,,{2}6h[2:1],
{8}5,5,,,{4}4/5,
6/3,2/7,8/1,
8b/1b,3/4,6/5,3/7,
1/8,6/5,3/4,6/2,
7/1,5/6,2/8,4/3,
5/6,2/1,8/7,3/4,
{8}6,6,{4}5,4/6,3/5,
{8}3,3,{4}4,5/3,6/4,
{8}7,6,{4}5,{8}2,3,{4}4,
{1}5s1[8:5],
{8}2,2/1,,7,{4}7/8,{8}2,4/3,
,7,5/6,4,2,3,{4}4,
{8}7,7/8,,2,{4}2/1,{8}7,5/6,
,2,4/3,5,6,7,{4}8,
{8}8,7/1,,1,{4}2/8,{8}5,6/3,
,4,3/5,6,7,8,{4}1,
{8}1,8/3,,8,{4}1/6,{8}2,3/5,
,7,6/4,5,{2}4q5[4:1],
{4}7xh[4:5],5,4,3,
2,1,1/8xh[4:1],2,
1/3xh[4:3],1,8,7,
6xh[4:1],4xh[4:1],2xh[4:1],8xh[4:1],
{2}7-4[8:1],2-5[8:1],
{4}6xh[4:1],8xh[4:1],2xh[4:1],4xh[4:1],
{8}8,7,6,1,2,3,4/5,4/5,
7,7,1,1,3,3,5,5,
{1}3b/7b,
,,,5xqq8[4:3],
1xqq4[4:3],
{2}5h[2:1],1h[2:1],
4h[2:1],8h[2:1],
{4}6h[2:1],1,2h[2:1],7,
8h[2:5],3,{2}4xh[1:2],
{4},,,,,,,Cfh[4:1],
{8},,7,7,4,4,6,6,
{16}1,1,,2,,3,,5<8[16:3]/4>1[16:3],,,,,,,,,{8}7,
7,1,1,6,6,3,3,
{16}6,6,4,4,,5,,6,,3,,5b/4b,,,,,{8}5/4,
5,2,2,5,5,3,3,
{16}8,8,,7,,6,,4>1[16:3]/5<8[16:3],,,,,,,,,{8}2,
2,8,8,3,3,6,6,
{16}3,3,5,5,,4,,3,,6,,5b/4b,,,,,6,
6,4,4,,,5,5,3,3,,,4,4,2,2,
,,4,3,4,3,,,{8}5,6,7/5,4,
{16}3,3,5,5,,,4,4,6,6,,,5,5,7,7,
,,5,6,5,6,,,{8}4,3,2/4,5,
{16}7,7,1,1,,,8,8,2,2,,,1,1,3,3,
,,1,2,1,2,,,{8}8,7,6/8,1,
{16}2,2,8,8,,,1,1,7,7,,,8,8,6,6,
,,8,7,8,7,,,{8}1,2,3/1,8,
7/5,7/5,{16}6,6,,8,,2h[16:3],,,{8}4,5,
{16}3,3,6,6,,2/7,,5h[16:7]/4h[16:5],,,,,,,,,{8}2/4,
2/4,{16}3,3,,1,,7h[16:3],,,{8}5,4,
{16}6,6,3,3,,7/2,,4/5,,4/5,,3/6,,,,,{8}7/5,
7/5,{16}6,6,,8,,2h[16:3],,,{8}4,5,
{16}3,3,6,6,,2/7,,4h[16:5]/5h[16:7],,,,,,,,,3,
3,4,4,,,6,6,5,5,,4,{4}3b/5b,
{16}6,5,6,5,,7,,3,,8,,2b,,,,,2,
1,2,1,,,7,8,7,8,,2,{8}1b/3b,4,
{16}6,6,4,4,,5,,3,,4,,2bh[16:77]/4bh[16:77],
E
&inote_5=(134){4},,,,,,,C,
{48}1bx/8bx,2x/7x,3x/6x,4xqq1[16:17]/5xpp8[16:17],{1},{4},{16},,{24},{2}8xh[2:3],
{1}7xqq4[8:5],
{4}4xh[4:1],2h[4:1],8h[4:1],6h[4:1],
5xV38[2:1],6,{8}7,7,,,{4}8<4[2:1],
1,{8}3,3,,,{1}3xq8[2:1]/4xV61[2:1],
2qq3[8:5]*<4[8:5],
{4}Cf,{16}4x,4x,,6,5,6,,7,{8}5,4/6,
{16}3,3,,,5,5,,3,4,3,,2,{8}4,5/3,
{16}7,7,,,8,8,,2,1,2,,3,{8}1,8/2,
{16}7,7,,,1,1,,7,8,7,,6,{8}8,1/7,
{16}2x>5[8:1],1,,8,{8}2x,7,{16}6-1[8:1],5,,4,{8}6,2,
{16}7x<4[8:1],8,,1,{8}7x,2,{16}3-8[8:1],4,,5,{8}3,7,
{16}6x>3[8:1],8,,8,{8}6x,1,{16}2<7[8:1],4,,4,{8}2,5,
{16}1x,1x,,6,{8}6,2,3/Cfh[2:1],4x,{4}5x-1[8:1],
5x,7bxp1[4:1],1>4[4:1],4<7[4:1],
7>2[4:1],2p5[4:1],5q3[16:3],4,
1x<5[4:1],5q2[4:1],2q8[4:1],8xq6[4:1],
6xq4[4:1],5x,{16}E6,E7,E8,E1,E3,E4,E5,E6,
{4}8q5[4:1],5<8[4:1],8p2[4:1],2>5[4:1],
5x<8[4:1],8p2[4:1],2q8[4:1],1,
4x>1[4:1],1<6[4:1],6q4[4:1],4q2[4:1],
2xq8[4:1],5x,{16}5,6,7,8,1x,2x,3x,4x,
{4}5/1-6[8:1],5-2[8:1],7-4[8:1],3-8[8:1],
6<1[8:1],6/4>1[8:1],4/7qq4[8:3],{8}7,{24}8x,1x,2x,
{4}3x-8[8:1],7-4[8:1],2-5[8:1],1-6[8:1],
2/1-4[8:1],8/1<6[8:1],3/1>4[8:1],1/7qq2[2:1],
7/2,3,4,5/1,
3/5-2[8:1],6/5-8[8:1],4/5>2[8:1],7/5,
{16}7,8,7,8,,,2,1,2,1,,,6,5,6,5,
,,3,4,3,4,,,7,8,6,1,5,2,4,3,
{1}4bh[2:3]/3b-1-7-5-3>2<1<8<7<6>5>4>3[8:13],
{16},,,,,,,,,,,,,,,,E3,
B2,B1,E1,,,E7,B7,B8,E1,,,E4,B3,B2,E2,
,,E5,E6,E7,E8,,,B1,B2,B3,B4,E5,A5,,,E7,
B7,B8,E1,,,E3,B2,B1,E1,,,E6,B6,B7,E8,
,,E5,E4,E3,E2,,,B1,B8,B7,B6,B5,B4,B3,B2,
{2}8x<3[4:1],8x-5[8:1]*z4[8:1],
1x-4[8:1],7x-1[8:1]/4x-8[8:1],
{16}B5,B6,B7,E8,E2,B2,B3,B4,D8,D7,D6,D5,D2,D3,D4,D5,
{24}E8,E7,E6,E2,E3,E4,B7,B6,B5,B2,B3,B4,{64}8x-5[4:7],1x-4b[4:7],{1},,{16},,,{32},{4}Cfh[4:1],
{8}7b-3[8:1],5x/6x,{16}7-5[8:1],1,,1,7-3[8:1],8,,8,{8}7,1,
{16}2/4,2,,6p1[16:3]/5q2[16:3],,2/1,,6/5,,,,,{8}7>2[8:1],5,
{16}2/7pp5[4:1],,,4,{8}7,3,{16}2v5[8:1],,,8,{8}2,7,
{16}6,5,6,5,,6/5,,7/4,,8/3,,1b/2b,,,,,{8}2-6[8:1],
4x/3x,{16}2-4[8:1],8,,8,2-6[8:1],1,,1,{8}2,8,
{16}7/5,7,,3q8[16:3]/4p7[16:3],,7/8,,3/4,,,,,{8}2qq5[8:3],4/3,
2,{16}5,5,,6,{8}6,{16}3/7,3,,8,{8}8,2,
{16}3,4,3,4,,3/4,,2/5,,1/6,,8b/7b,,,,,4,
5,4,5,{8}3b-8[8:1],4,5-2[8:1],6,7-4[8:1],8,
1-6[8:1],2,3,4,{16}5,4,6,4,7,4,8,4,
{8}1-6[8:1],2,3-8[8:1],4,5-2[8:1],6,7-4[8:1],8,
1-6[8:1],2,3,4,{16}4,7,4,6,4,5,3,4,
{8}2b>4[8:1],1,7>1[8:1],6,4<6[8:1],3,2>4[8:1],1,
7>1[8:1],6,3<5[8:1],2,{16}5x,6x,7x,8x,1x,2x,3x,4x,
{8}5/1>3[8:1],8,6<8[8:1],5,3<5[8:1],2,1>3[8:1],8,
6<8[8:1],5,2,{16}2,1,3,1,3,8,3,7,4,6,
{8}4b/5b-1[8:1],1/8,{16}3/5-7[8:1],3,,2,5-3-6[16:3],1,,8,{8}5,7,
{16}1/5x,2/6x,3/7x,8/4>5[16:5],,6/2,,4/8h[16:5],,,,,,,8/2,7/3,
{8}6/4-8[8:1],8/1,{16}6/4-2[8:1],6,,7,4-6-3[16:3],8,,1,{8}4,2,
{16}8/4x,7/3x,6/2x,1/5,,3/7,,6/8,,3/1,,5b/8b,,,,,{8}1/8-4[8:1],
4/5,{16}2/8-6[8:1],2,,3,8-2-7[16:3],4,,5,{8}8,6,
{16}4/8x,3/7x,2/6x,5/1>8[16:5],,7/3,,1/5h[16:5],,,,,,,5,6,
7/1,7/1,1/7,7/1,,,2/8,2/8,8/2,2/8,,4/7,{4}6b/5bqq2[8:3],
{16}1,8,7,6,,6,,5,,4x/2x,,5b/8b,,1x,2x,3x,
8/4,4/8,8/4,4/8,,,3/7,7/3,3/7,3/7,,3/7,{4}5b/1b,
{16}6/2,7/3,8/4,1/5,,5/1,,3/7,,2/6,{48},,,5b/1b-5[16:65],6/2,7/3,{4}8/4,
E
&inote_6=(134){4},,,,,,,7-2[8:1]/3-6[8:1],
{1}7bV14[1:1]/3bV58[1:1],
{2},1h[2:3],
{1}4h[1:2],
{4},3,2,1,
{8}8h[1:1],{24}4,5,6,{4}7V51[4:1],{8},,,,1h[1:1],
{24}2,3,4,{4}5V73[4:1],{8},,,,4h[4:5],
{24}3,2,1,{4}8V26[4:1],,,6z2[4:1],
,,1-5[8:1]/2-6[8:1],
1b/2b,{16}7,6,5,4/2,,3,5-1[8:1],4,6,5,{8}7,
{16}8,8,,,2,3,4,5/7,,6,4-8[8:1],5,3,4,{8}2,
{16}1,1,,,7,6,5,4/2,,3,5-1[8:1],4,6,5,{8}7,
{16}8,8,,,2,3,4,5/7,,6,4-8[8:1],5,3,4,{8}2,
{16}1<6[8:1],1,,5,4,3,2,1,5-1[8:1],6,{8}7-4[8:1],5,7,
{16}8>3[8:1],8,,4,5,6,7,8,4-8[8:1],3,{8}2-5[8:1],4,2,
{16}1<6[8:1],1,,5,4,3,2,1,5-1[8:1],6,{8}7-4[8:1],5,7,
{16}8>3[8:1],8,,5,{8}5<8[8:1],7,4-8[8:1],3,{4}4/2-6[8:1],
2b,{8}7V13[4:1],3,3V57[4:1],7,7V13[4:1],3,
3-5[8:1],7,7,1,{16}1,5,2,6,3,7,4,8,
{8}5V31[4:1],7,1V75[4:1],5,5V31[4:1],1,1V75[4:1],5,
5-3[8:1],1,1,7,{16}7,3,6,2,5,1,4,8,
{8}4V68[4:1],2,8V24[4:1],4,4V68[4:1],8,8V24[4:1],4,
4-6[8:1],8,8,2,{16}2,6,3,7,4,8,5,1,
{8}5V31[4:1],7,1V75[4:1],5,5V31[4:1],1,1V75[4:1],5,
5-3[8:1],1,1,7,{16}7,3,6,2,5,1,4,8,
{8}4/8pp3[8:9],5,6,7,6,5,6,7,
6,5,6,7,1>5[16:3],6,7,8,
1qq6[8:5],4,3,2,3,4,3,2,
1q5[8:1],8,7p3[8:1],6,2q6[8:1],1,7pp5[4:3],8,
4,3,2,3,4,3,2,3,
4p8[8:1],5,6q2[8:1],5,3p7[8:1],4,6,5,
{16}8,7,8,6/1,,,1,2,1,3/8,,,6,7,5,6/4,
,,3,2,4,3/5,,,6,1,7,3,{32}1-6[8:1],2,3,4,{8}5,
{1}1bq3[2:7]/7p5[2:7],
,,,4h[4:9],
{2},,8h[4:3],
6h[4:3],
4h[4:3],8h[4:5],
{1}5h[1:1],
{24}8,1,2,5,6,7,1,2,3,6,7,8,{2}1w5[4:7],
{4},,,,,,,6/5h[4:1],
{48}7b-4[8:1],4,3,2,,,{8}8,{16}7-1[8:1],1,,3,7,3,,4,{8}8/4>8[16:3],3/6,
{16}8/4,7,6,5,,8/7,{48},,,8/7,1/6,2/5,{4}3/4-6-1[16:3],{8}1,3,
{32}5-2[8:1],,,,,1,8,7,{8}6,8,{32}4-7[8:1],,,,,8,1,2,{8}3,1,
{16}8/5,1/6,2/7,3/8,,5/6,,3/4,,4/5,{48},,,4b/5b,3/6,2/7,{4}1/8,
{48}4/2b-5[8:1],5,6,7,,,{8}1,{16}2-8[8:1],8,,6,2,6,,5,{8}1/5<1[16:3],6/3,
{16}1/5,2,3,4,,1/2,{48},,,1/2,8/3,7/4,{4}6/5-3-8[16:3],{8}8,6,
{16}4h[8:1],{32},,,,8/4h[8:1],1,{8}2,{32}8/4h[8:1],7,{16}6,{32},,5/1,6/2,{8}7/3,{32}4/8,3/7,{16}2h[16:1]/6h[16:1],,,8/5,
1/6,2/7,3/8,,5/6,,3/4,,4/5,{48},,,4b/5b,3/6,2/7,{4}1/8,
{16}5,5,1,1,7,7,{24}6,2,5,1,4h[6:1],{12}8h[8:1],{24},,1,5,2,6,3h[6:1],7h[8:1],
,,,3,7,4,8,5h[6:1],{6}1h[8:1],{48}1/5,,,8/4,,,{16}7/3,6/2,5,4,3,2,
1/5,5,8,8,2,2,{24}3,7,4,8,5h[6:1],{12}1h[8:1],{24},,8,4,7,3,6h[6:1],2h[8:1],
,,,6,2,5,1,4h[6:1],{6}8h[8:1],{48}8/4,,,1/5,,,{16}2/6,3/7,4/8,1,2,3,
4/8,8,5,5,3,3,{24}2,6,1,5,8h[6:1],{12}4h[8:1],{24},,5,1,6,2,7h[6:1],3h[8:1],
,,,7,3,8,4,1h[6:1],{6}5h[8:1],{48}5/1,,,4/8,,,{16}3/7,2/6,1/5,4,3,2,
5/1,5,8,8,2,2,{24}3,7,4,8,5h[6:1],{12}1h[8:1],{24},,8,4,7,3,6h[6:1],2h[8:1],
,,,6,2,5,1,4,8,4,{48},{16}8,5,1,6,2,7,3,8,3,
{48}1/3b-8[8:1],8,7,6,,,{8}4,{16}3-5[8:1],5,,7,3,7,,8,{8}4/8<4[16:3],7/2,
{16}4/8,3,2,1,,4/3,{48},,,1/2,8/3,7/4,{4}6/5-3-8[16:3],{8}8,6,
{48}4/3b-8[8:1],5,6,7,,,{8}2,{16}3-5[8:1],5,,7,3,7,,8,{8}4/8,7/5,
{16}5/8,4/7,3/6,2/5,,1/2,,6/8,,1/3,{48},,,1b/8b,2/7,3/6,{4}4/5,
{48}8/6b-1[8:1],1,2,3,,,{8}5,{16}6-4[8:1],4,,2,6,2,,1,{8}5/1>5[16:3],2/7,
{16}5/1,6,7,8,,5/6,{48},,,8/7,1/6,2/5,{4}3/4-6-1[16:3],{8}1,3,
{16}8/2,7/2,6/2,5/2,,,4/6,3/6,2/6,1/6,,7/8,{48}7/8bV64[16:3],1,2,3,,,,,,,,,{16}3,
2,1,8,,6/7,,1/3,,5/6,{48},,,7b/8b,6/1,5/2,{4}4/3,
{16}1/7,2/7,3/7,4/7,,,5/3,6/3,7/3,8/3,,2/1,{48}2/1bV35[16:3],8,7,6,,,,,,,,,{16}6,
7,8,1,,3/2,,8/5,,4/1,{48},,,5b/1b<4[16:49],4/8,3/7,{4}2/6,
E
