&title=Keep it up
&artist=uma
&first=0.077
&des=地雷
&lv_5=14+
&inote_5=(280)
{1},
{4},,6,5,4b/2b,3,{12}4,3,5,{4}4h[4:3],6h[2:1],,,5,4,{8}6,5,{4},7h[4:3],4,,
5h[4:1],1,8h[4:1],4,{12}2,4,3,{4}5h[4:3],3h[2:1],,,4,5,{8}3,4,{4},2h[4:3],6,,
{8}7,3,8,4,1b,,5,,4h[2:1],,8,,1h[2:1],,4,,3h[2:1],,8,,
1h[2:1],,3,,2-8[4:1],,8V64[3:1]*v3[3:1],,,,,,
2h[4:1],,5h[4:1],,8b,,4,,5h[2:1],,1,,8h[2:1],,5,,6h[2:1],,1,,8bw4[4:3],,,,,,,,,,,,
3,3,5,5,{2}4b<3[4:3],4,4<3[4:3],4,4<3[4:3],4,4<3[4:3],4,
8b<1[4:3],8,8<1[4:3],8,8b<1[4:3],8,8b,{8}8,7,6,5,
4b/8b,,6,,2,1,2,1,8b/3b,,2,,7,8,7,8,6b/1b,,7,,1,1,1,1,8b/2b,,3,,8,8,8,8,
7b-4[8:1]/1b,,3,,2b-5[8:1]/8b,,6,,7b-4[8:1]/1b,,3,,2b-5[8:1]/8b,,6,,
7b-3[8:1],,8b-4[8:1],,1b-5[8:1],,2b,,8pp5[2:1]*V64[2:1],,,,,,,,
6h[8:1]/4h[8:1],,6h[8:1]/4h[8:1],,6h[8:1]/4h[8:1],,6,4,
3h[8:1]/5h[8:1],,3h[8:1]/5h[8:1],,3h[8:1]/5h[8:1],,3,5,
4h[8:1],6h[8:1],4,,1h[8:1]/3h[8:1],,4h[8:1]/5h[8:1],,7b,8b,7b,,3b,4b,3b,,
6h[8:1]/4h[8:1],,6h[8:1]/4h[8:1],,6h[8:1]/4h[8:1],,6,4,
3h[8:1]/5h[8:1],,3h[8:1]/5h[8:1],,3h[8:1]/5h[8:1],,3,5,
2,6,2h[8:1],,3h[8:1]/5h[8:1],,6h[8:1]/4h[8:1],,7,3,7h[4:1],,1b-5[6:1],,,,
7b,7h[8:1],3,3h[8:1],8,8h[8:1],4,4h[8:1],1,1h[8:1],5,5h[8:1],8,4,7,3,
6h[8:1],4h[8:1],6h[8:1],,3,3h[8:1],7,7h[8:1],3b,,8b,2b,,6b,4b,,
7b,7h[8:1],3,3h[8:1],8,8h[8:1],4,4h[8:1],7,7h[8:1],3,3h[8:1],6,2,7,3,
6,6,8,8h[8:1],4,4h[8:1],2,2h[8:1],8b-4[8:1],,,,
{16}8,1,2,3,8,7,6,5,{8}8h[4:1],,6b,6/8>4[8:3],,,7,8,1h[4:1],,
3,1<5[8:3],,,2,1,8,8,6,8>4[8:3],,,7,8,1b,5,8b,4b,8,2b,6b,,
8b,,6,8>4[8:3],,,7,8,1h[4:1],,3,1<5[8:3],,,2,2,{16}1,2,3,,
{8}6,6,4,4,7,7,{6}5b,7b/4b,6b/3b,5b-1[8:1]/2b,,,
{16}2,3,4,,8,,8,,5,,5,,7,,7,,4,,4,3,2,,5,,2,,2,,4,,4,,3,5,3,,6,4,6,,3,5,2,,6,4,7,,
3b,,2b,,1b-4[4:1],,,,7b,,6b,,5bv8[6:1]*-1[6:1],,,,{1}4b>5[4:6],,
{24}6b/2b,3,4,,,,,,,3b/7b,6,5,,,,,,,6b/2b,3,4,5,,,8b-4[4:1],,,,,,,,,,,,2b,,,,,,,,,,,,
{2}3b<6[3:1],7,1b>4[3:1],5,7b>2[3:1],3,5b<8[3:1],5b>2[3:1],
7b>2[3:1],3,5b<8[3:1],1,3b<6[3:1],7,1b>6[2:1],8b,
{4}8bpp5[4:3],8,4,4,3b,3,7,7,1bqq4[4:3],1,5,5,6b-8[6:1],6,2b-4[6:1],2,
8bpp5[4:3],8,4,4,3b-1[6:1],3,7-5[6:1],7,1bqq4[4:3],1,5,5,{8}6b,6,2,2,
{24}3b/5b,26,17,,,,,,,,,,
2b,3,4,5h[4:1],,,,,,1b,2,3,4h[4:1],,,,,,8b,1,2,3h[8:3],,,
7bV51[3:1],,,,,,,,,,,,4b,,,,,,,,,,,,
7b,6,5,4h[4:1],,,,,,8b,7,6,5h[4:1],,,,,,1b,8,7,6h[8:3],,,
2bqq4[2:1],,,,,,,,,,,,7b,6,5,,,,,,,,,,
2b,3,4,5h[4:1],,,,,,1b,2,3,4h[4:1],,,,,,8b,1,2,3h[8:3],,,
7bV51[3:1],,,,,,,,,,,,4b,,,,,,,,,,,,
7b,6,5,4h[4:1],,,,,,8b,7,6,5h[4:1],,,,,,1b,8,7,6h[8:3],,,
{8}2,,3V52[3:1],,8b,,,,
1b,,,6b/4b,,,8b,2b,7b,3,6,4,8,2,6,4,
8b,,,3b/5b,,,1b,7b,2b,6,3,5,1,7,3,5,
1b,1,1,5b,5,5,3b,7b,
{24}3b,4,5,6,7,8,1,2,3,4,5,,8b,7,6,5,4,3,2,1,8,7,6,5,{2}4bw8[2:1],,2b/6b,
{16}7,1,7,1,7,1,7,1,
{8}8b-5[6:1],,4-8[6:1],,7-4[6:1],,3,2,1-4[6:1],,5-1[6:1],,2-5[6:1],,6,,
7,7,3,,6-1[6:1]/2-5[6:1],,26,,48,,{16}8,7,6,5,4w8[6:1],,,,4b,,,,
{8}2-5[6:1],,1-6[6:1],,4-8[6:1],,5,6,7-4[6:1],,8-3[6:1],,5-1[6:1],,4,,
2,2,6,,3/7-4[6:1],,3,2,1b,,5,1b>4[4:1]*<6[4:1],,,,,
5,5h[8:1],1,1h[8:1],6,6h[8:1],2,2h[8:1],7,7h[8:1],3,4,8-5[6:1]/5-2[6:1],,,,
1,1h[8:1],5,5h[8:1],2,2h[8:1],6,6h[8:1],
3h[4:1],,{24}2,1,8,7,6h[3:1],,{8},,{24}8,1,2,3,,,
{8}8b-5[6:1],8,4-8[6:1],4,7-4[6:1],7,3,2,1b-4[6:1],1,5-1[6:1],5,2-5[6:1],2,6,6,
7b,,,1b/5b,,,8b/4b,7b/3b,6bv1[4:1]/2bqq5[4:3],,,,,,,,
7b,,,8b/5b,,,7b/4b,6b/3b,5b/2b,,,1b/4b,,,2b/5b,3b/6b,4b/7b,,,
8b/5b,,,6b/3b,5b/2b,{24}1,2,3-7[6:1],,,,7,6,5-2[6:1],,,,,,,,,,,,,,,,
{8}4b,,,1b/4b,,,2b/5b,3b/6b,4b/7b,,,8b/5b,,,7b/4b,6b/3b,5b/2b,,,
1b/4b,,,3b/6b,4b/7b,{24}8,7,6-2[6:1],,,,2,3,4-7[6:1],,,,,,,,,,,,,,,,
{8}8-6[8:1],8,2-4[8:1],2,7,7,3,3,8p4[8:1],8,2q6[8:1],2,1b-5[6:1],,1b,,
1-3[8:1],1,7-5[8:1],7,2,2,6,6,1,,{16}51,62,73,84,5b/1bs5[4:1],,,,,,,,
{8}2b-6[8:1],2,1-5[8:1],1,4,4,7,7,
{16}1b/5h,2,3,4,5b/1h,6,7,8,1b/5h,2,3,4,5b/1h,6,7,8,
{1}5b/1b>8[4:3],4,,,,,
