&title=Comet Coaster
&artist=DJ Noriken & aran
&first=0.26
&des=Drelxyse
&lv_5=14+
&inote_5=(90)
{16},,,,,3/6,3/6,,,,,,,E8/B7/E2/B2,3/6,,
{8}2>1[2:1],2h[4:1],B4,A3,3h[8:1],
{16},4,4,,5,7v8[8:1],5,,,7,3,,
{32}2x,1x,2x,1x,
{16}2q5b[16:3],2,2h[8:3],,,,,,
{8}7<8[2:1],7h[4:1],B5,A6,6h[8:1],
{16},5,5,,4,2v1[8:1],4,,,2,6,,
{32}7x,8x,7x,8x,
{16}7-2b[8:1],7,7h[8:1],,,6b,6b,,
{16}2bh,,8-6-3[8:1],4,,3,8,,2,,4-2-7[8:1],2-7-5b[8:1],,1,4,,
{16}3bh,,2,7-4[8:1],,,
{32}8xpp4[4:1],7x,8x,7x,1,,1,,8b,,
{16},6h[8:1],,,,
{16}7bh,,1-3-6[8:1],5,,6,1,,7,,5-7-2[8:1],7-2-4b[8:1],,8,5,,
{32}6hx[4:1],,,,5h[4:1],,,,7,8,1,,4,3,2,,2v5[16:1]/1-6[16:1],,1/8,,7v4[16:1]/8-3[16:1],,,,1/2,,,,7/8,,,,
{16}6h[16:3],4,3b,2,3h[16:3],5,6b,7,1v6[16:1]/2,2,7/8v3[16:1],7,1/7,7,8/2,2,
{16}1/5,6v3[4:1],3/7,2v7[8:1],6,6<2b[8:3],2>6b[16:5],2,,,,,,A1f/A5f,,,
{16}1^4[8:1]/2,,6s2[8:1]/2,,1/6,,6,,3s7[8:1],,7,8>6b[4:1]/4,7/3,,5,6p3[4:1]/8,7,,7,7,7,
{32},,8x<8b[16:5],8x,8x,,2,,1,,8,,
{16},1x,,2x,,
{16}3/7pp3[8:1],,5/6,,4<8[8:1]/7,4,4p2b[8:1],,4/2,,4>8[8:1],7,6,,4/6,6-8-4[8:1],6,,2/7,1/6,8-4<4b[8:3],,
{32}1,5,1,5,
{16}8,4,Chf[4:1],,,,,,
{16}8^5[8:1]/7,,3z7[8:1]/7,,8/3,,3,,6z2[8:1],,2,1<3b[4:1]/5,2/6,,4,3q6[4:1]/1,2,,2,2,2,
{32},,1x>8b[16:5],1x,1x,,7,,8,,1,,
{16},8x,,7x,,
{16}6/2qq6[8:1],,4/3,,5>1[8:1]/2,5,5q7b[8:1],,5/7,,5<1[8:1],2,3,,5/3,3-1-5[8:1],3,,7/2,8/3,1-5<7-3b[4:1],,
{32}8,4,8,4,
{16}1,4b,4bh[4:1],,,,,,
{16}2h,1-5[16:1],8-4[16:1],7h,8h,1h,8h,,6h,5h,4h,,3h,4h,5h,,
3h,4-8[16:1],5-1[16:1],6h,5h,4h,5h,,7^5-3^1[4:1],8-4b[16:1],3/4,7/8,,
{64}A8,B8/Cf,B4,A4,,,,,,,,,
{32}7-1[16:1],,,1,1,,6,,7b-5[16:1],,,2,2,,8,,7b-3[16:1],,,3,3,,7,,7b,,,1,1,,7h,,
{16}1,8,1,2,1-6[16:1],8,1-4[16:1],2,1-5b[16:1]/8,,1/2,,1,,1b/Cf,,
{16}1-6-3-7-4[4:1]/2,,8/3,1-4b[16:1],1b,1x,1x,1,
{16},,2pp5[8:1]/6pp1[8:1],1,3/7,5,2/6,,
{16},,4v6b[8:1]/8v2[8:1],1/5,2/3,7/6,,,
{16},,1-5b[16:1]/5-1b[16:1],4/8,7p3[16:1]/3p7[16:1],,1/5,
{16}A1/A5,7/3,,8,4s8[8:1],1,5,2/5b^7[16:1],7/4b^2[16:1],,,5-8[16:1],4-1[16:1],6x,3x,5,4,
{16}7h[16:1],5h[16:1],4h[16:1],2h[16:1],
{32}B5,B6,B7,,B1,B2,B3,,
{64}3b-8[16:1]/7b-4[16:1],2/6,1/5,,,,,,
{64}8b^6-2[16:1]/4b^2-6[16:1],1/5,2/6,,
{16},,,,,
8x-3-6-2-5[4:1]/7x,,1/6,8-5b[16:1],8b,8x,8x,8,
{16},,7qq4[8:1]/3qq8[8:1],8,6/2,4,7/3,,
{16},,5v3b[8:1]/1v7[8:1],8/4,7/6,2/3,,,
{16},,8-4b[16:1]/4-8b[16:1],5/1,2q6[16:1]/6q2[16:1],,8/4,
{16}A8/A4,2/6,,1,5z1[8:1],8,4,7x/4b^2[16:1],2x/5b^7[16:1],,,4v7[16:1],5v2qq6b[16:7],3x,6x,4,5,A8,D1,A2,D2,A1,B1,,,
{64}1h[16:1]/8,7,6,5,,,,,8h[16:1]/1,2,3,4,,,,,8b-4[16:31],7/1,6/2,5/3,4,,,,
{16},,
{24}6,7,8,3,2,1,B8,B7,E7,B1,B2,E3,5,6,7,3,2,1,A8,E8,E7,A1,E2,E3,7,6,8,2,1,3,8,8,2,2,7,7,
{48}8b,1,2,8b,7,6,8-4b[16:1],1,2,8b,7,6,
{32},,8x<4>7b[16:31],,8bx,,,,
{24}2x,1,2,1,2,1,
{32},,B1/B2,,B1/B2,,,,
{24}3,4,3,4,3,4,
{32},,B3/B4,,B3/B4,,,,
{24}6,5,6,7,6,5,4,3,2,3,4,3,5,5,5,4,4,4,
{32},,B4/B5,,B4/B5,,B4/B5,,
{16}3h[8:1],,5h[8:1],,8>5[8:1],,,,8/7s3b[8:1],,,8,7,,,,
{16}5h[8:1],,7h[8:1],,2-5-8b[8:1],,,,2/3q6[8:1],,,3,3,,,,
{24}7,5,8,1,4,3,7,7,6,7,4,5,2,3,1,8,5,6,1,8,3,5,1,7,
{24}2,5,4,8,2,6,6b,8b,5b,1b,4b,2b,3b,1bs5b[8:1],8b,6bv3[16:1],7b,4b,5b,1x,
,6x,,,
{16}2pp6[4:3],,,,,B7/E8,B1/E1,,,,,,,B7/E8,B1/E1,,
{16}8b-4b[4:3],,,,,,,,,,,,,,,,
{16}1,6,1,4,1<1[8:3],8,1,2,1,B8,C,B4,,B2,B6,,
{16}7/8,6,1/2,3,1/8^6[16:1],1/8,1-5[16:1]/8,,8-3-7-4b[8:1]/2,,1,,8b,,,,
{32}2-4[16:1]/6,,7,1,7-5[16:1],,8/3,,2b,8,8,,7b,1,1,,2v5[16:1],,8,1,8v3[16:1],,1/7,,2b,,1,,8b,2,2,,
{64}8-2[16:1],E8,E7,A6,,,3,,,,3v6[16:1],,3,,
{32},8x,,5,,4x,3x,,,1v7[16:1],5v3[16:1],8,4,7,3,,,1,5,,,8,4,8,4,
{32}7-1[16:1]/3,,6,4,,4,6,,7/3,,4,,2,6,2,,
{32}1-3[16:1]/5,,6,8,,8,6,,1-4-7b[8:1]/5,,4,,8,7,8,,
{32}1/5-8-3b[8:1],,,,8,8,8,,1/5,,,,4,4,4,,
{32}5,3,6,2,7w3[16:1],1,8,8,8,8,,,7,,,,
{32}1-6[16:1]/8-3[16:1],1/8,,1/8,2/7,,,,1/8,,,,4,5,4,,
{32}6p3[16:1]/3,,1/2,,7,8,7,,6/4V28[8:1],,,,1,8,7,6,
{32}4V68[8:1],,5,5,,6,6,,4,,3,,,2,2,,7-3^8b[16:3],1,6,2,5,3,5,3,7,,,,4,4x,4x,4x,
{32}7-5[16:1]/3,,2,8,2-4[16:1],,1/6,,7b,1,1,,2b,8,8,,7v4[16:1],,1,8,1v6[16:1],,8/2,,7b,,8,,1b,7,7,,
{32}5h[16:1]/2,2,2,,3h[16:1]/7,7,7,,4w8[16:1]/4<4b[2:1],5,4,5,3,6,3,6,4b,Cf,,,,,,,Ch[8:1],,,,,,,,
{16}8-4[4:3],,,,,B7/B6,B1/B2,,,,,,,B7/B6,B1/B2,,
{16}6pp2b[4:3],,,,,,,,,,,,,B5/B4,B5/B4,B5/B4,
{16}3-5-7-1[2:1],,,,,C,C,,7<2[2:1],,,,,C,C,,
{16}4-6-8-2<5b[4:3],,,,,,,,,,,,,B1/B2,B7/B8,B4/B5/C,E
