&title=あねもねぐりっち
&artist=とりぴよ/库鳴花ヒメ/鳴花ミコト
&first=-0.04
&des=dbna
&lv_5=12+
&inote_5=(140){1},
{8}4h[8:1],E7,4h[8:1],E7,4h[8:1],E7,4h[8:1],E7,3h[8:1],E7,3h[8:1],E7,3h[8:1],E7,{16}5,4,5,4,
{8}5h[8:1],E3,5h[8:1],E3,5h[8:1],E3,5h[8:1],E3,6h[8:1],E3,6h[8:1],E3,6h[8:1],E3,6h[8:1],E3,
{8}1h[8:1],E7,1h[8:1],E7,1h[8:1],E7,1h[8:1],E7,2h[8:1],E7,2h[8:1],E7,2h[8:1],E7,{16}8,1,8,1,
{8}8h[8:1],E3,8h[8:1],E3,8h[8:1],E3,8h[8:1],E3,7h[8:1],E3,7h[8:1],E3,7h[8:1],E3,{8}7,7,
{4}2-5[8:1]/6-1[8:1],2/6,7-4[8:1]/3-8[8:1],7/3,6-8[8:1]/2-4[8:1],6/2,1-7[8:1]/5,{8}5/1,4,
{4}3>8[8:1]/6>3[8:1],3/6,4<7[8:1]/1>4[8:1],4/1,8-2[8:1]*-3[8:1],8-6[8:1]*-5[8:1],8<3[4:1],{8}2,1,
{4}8bV24[8:1],5v7[8:1],2-4q8[4:1],8<2b[2:1]/2,1,8,7,{8}1/6,2,
{4}3q1[8:1]/7,8<4[8:1],2-6-2[4:1],2pp5b[2:1]/6pp1b[2:1],,,,{8}2v4[8:1]/6v8[8:1],3/7,
{8},,1>3[8:1],,1/8q4[8:1],,1p5[8:1]/8,,1/8<6[8:1],,{32}8x/4,3x,2x,,,,,,{8}1/5,,2>5b[8:1],3,
{8}2/7-3[8:1],,7/8-4[8:1],1,7/8,6,{24}6,5,4,3,,,{8}2bq3[2:1]/7b,,,,,,7,8,
{8}1bV75[8:1]/2,8x,4v2[8:1],3x,7-5p1[4:1],6x,1>7b[2:1]/7,8x,8,8x,1,1x,2,2x,8/3,7x,
{8}6p8[8:1]/2,5x,1>5[8:1],2x,7-3-7[4:1],6x,7<4q8b[2:1]/3>8q4b[2:1],4x,,,,,,,{8}7qq5[8:1]/3qq1[8:1],6/2,
{8},,8<6[8:1],7x,8/1p5[8:1],2x,8q4[8:1]/1,7x,8/1>3[8:1],2x,{32}1x/5,6x,7x,,,,,,{8}8/4,,7<4b[8:1],6,
{8}7/2-6[8:1],3,2/1-5[8:1],8,2/1,3,{24}3,4,5,6,,,{8}2bq3[2:1]/Cf,,,,,,7,8,
{16}3,5,4,6h[8:1],,2h[8:1],,,5,3,6,4,7,,3,5,2h[16:5],,5x,,7x,,6,4,,4,,4,8,7,6,5,
{16}4,3,2,1,4,3,2,1
,8x/4x,,7x/3x,,2x/6x,,1,5,1,2,3,4,5h[4:1],,1,,{24}8x,7,6,5,4,3,2x/8b,,,,,,
{16}4/6,,{24}6x,5x,4x,{16}3x,,4x,,3x/5x,,2x/6x,,1x/7x,,1,8,1,2,3,4,8,7,6,5,2x/4x,,3x/5x,,4x/6x,,7,5,
{16}7h[8:1],,3,,{24}1x,8,7,6,5,4,3xh[8:1],,,6x,,,8x,1,2,3,4,5,6xh[8:1],,,3x,,,5,4,5,4,,,{16}3/6,,2/7,,1b/8b,,,,
{8}2-4[8:1],E7,2,E7,2-4[8:1],E7,2,E7,1-3[8:1],E7,1,E7,1,E7,{16}1,8,1,8,
{8}2>4[8:1],E7,2,E7,2>4[8:1],E7,2,E7,1>3[8:1],E7,1,E7,1-4[8:1]*-6[8:1],,1,,
{8}7-5[8:1],E3,7,E3,7-5[8:1],E3,7,E3,8-6[8:1],E3,8,E3,8,E3,
{16}8,1,8,1,{8}7<5[8:1],E3,7,E3,7<5[8:1],E3,7,E3,8<6[8:1],E3,8,E3,8z4[4:1],,3,3,
{4}2>5[4:1],5<8[4:1],8q5[4:1],5>1[4:1],1q7[4:1],7>4[4:1],{16}5,,5,,6,,6,4,
{8}7<4[4:1],,4>8[4:1],,8<3[4:1],,3,,1<7[8:1]*-6[8:1],,1>3[8:1]*-4[8:1],,1-3<4<5<6[4:1],,7,7h[16:1],
{8}8b>2[8:1],,3p7[8:1]/8,,6qq5[4:1]/3,,5<5b[2:1]/6,,1bh[2:1]/A5,,,,,,2/6,7,
{8}8-4[8:1]/3,,3v1[8:1]/8,,6V82-4[4:1],,6/4q7b[2:1]*p1b[2:1],,A4,,,,,,2v5[8:1]/8v5[8:1],2/8,
{8},,4>2[8:1],,4/5p1[8:1],,4q8[8:1]/5,,4/5<7[8:1],,{32}5x/1,2x,3x,,,,,,{8}4/8,,3>8b[8:1],2,
{8}3/6-2[8:1],7,6/5-1[8:1],4,6/5,7,{24}7,8,1,2,,,{8}3bp2[2:1]/Cf,,,,,,7,8,
{8}1b<7[8:1],2x,6q2[8:1],5x,3pp5[8:1],4x,7>1[8:1],6x,2p6[8:1],3x,5w1b[8:1],,,,7/3,2,
{8}1-5[8:1]/6,2x,6v8[8:1],7x,3V17[8:1],4x,6>7b[2:1],5x,Cf,,,,,,7q4[8:1]/1p4[8:1],7/1,{8},,5<7[8:1],6x,5/4q8[8:1],3x,5p1[8:1]/4,6x,5/4>2[8:1],3x,{32}4x/8,7x,6x,,,,,,{8}5/1,,6<1b[8:1],7,
{8}6/3-7[8:1],2,3/4-8[8:1],5,3/4,2,{24}2,1,8,7,,,{8}3bp2[2:1]/Cf,,,,,,{48}E7,B7,B8,E1,,,E3,B3,B4,E5,,,
{16}8b,1x,2x,3x,4x/8,5x/1x,6x/2x,7x/3x,8x<5[8:1],,5x>2[8:1],,,,,,1,8x,7x,6x,5x/1,4x/8x,3x/7x,2x/6x,1x-4[8:1],,4x>1[8:1],,,,,,
{16}5,6,7,8,4,3,2,1,7,6,5,4,8,1,2,3,8b<5b[8:1],,,,8b>3b[8:1],,,,8b,,,,{24}7x,6,5,4x,3,2,
{8}1/8b,,7V53[8:1],8,7,8,1-5[8:1],6,1,7,{24}8xq4[8:1]/4xq8[8:1],7x/3x,2x/6x,1x/5x,,,{8},,2-5[8:1]/6-1[8:1],3/7,
{8}2<7[8:1]/6>3[8:1],,2/6,,2/6,1/5,4/8,1/5,2bq3[4:1]/6b,,,,,,5,5,
{16}1b,8x,7x,6x,5x/1,4x/8x,3x/7x,2x/6x,1x>4b[8:1],,4x<7b[8:1],,,,,,8,1x,2x,3x,4x/8,5x/1x,6x/2x,7x/3x,8x-5b[8:1],,5x<8b[8:1],,,,,,
{16}4,3,2,1,5,6,7,8,2,3,4,5,1,8,7,6,1b-5b[8:1],,,,1bw5b[8:1],,,,1b,,,,{24}2x,3,4,5x,6,7,{8}8/1b,,2V46[8:1],1,2,1,8-4[8:1],3,8,2,{24}1xp5b[8:1]/5xp1b[8:1],2x/6x,7x/3x,8x/4x,,,{8},,7-4[8:1]/3-8[8:1],6/2,
{8}7>2[8:1]/3<6[8:1],,7/3,,7/3,8/4,5/1,8/4,3bp2[4:1]/7b,,,,,,7-4[8:1]/3-8[8:1],6/2,
{8}7>2[8:1]/3<6[8:1],,7/3,,7/3,8/4,5/1,8/4,3bp2b[4:1]/7b,,,,,,7/3,2/6,
{8}3bp2<3b[2:3]/7bp6[32:19],,,,,,,,,,,,,,,,
{1}Cf,
