&title=Girl meets Love
&artist=鈴湯、片霧烈火/ 「花咲ワークスプリング」主題歌
&smsg_6=beatTubeで書いた乱打譜面を再現したら花が咲いた____
&first=0.57
&lv_5=13+
&lv_6=14
&lv_7=14
&lv_1=音
&des_5=ちもし〜
&des_6=GANTZ
&des_7=GANTZ@譜面創作約1年の成長記録
&des_1=音
&wholebpm=185
&demo_seek=53.8
&demo_len=11.5
&inote_6=(185)
{8}
25,3,4,3,25,,6,47,
,38,,12,38,,,,
74,6,5,6,74,,3,25,
,2,1,8,7,,63,,
18,2,7,2,18,,27,36,
,45,,26,37,,,,
8,1,2,3,4,8,5,7>7[4:3],
,,,,,,,,
13,2,13,2,8,3,7,2,
,46,,35,,2,1,8,
68,7,68,7,1,6,2,7,
,35,,6,46,,5,4,
24,3,24,3,5,2,6,3,
,82,,17,,3,4,5,
75,6,75,8,4,1,3,2,
,1,,8,86,,,,
{16}
1,,7,,2,,6,,3,,5,,4,,35,,
,,15,,,,17,,,,2,,3,,4,,
15,,,,,,,,4,,8,7,63,,25,,
,,34,,,,16,,8,7,8,7,8,,7,,
6,,5,,4,,3,,2,,1,8,7,6,57,,
,,8,,1,,2,,3,,4,5,6,7,83,,
,,2,,7,,2,,6,5,4,,8,,7,,
6,,5,,4,,3,,2,,,,3b/8b,,,,
8,,2,3,4,,7,,4,,6,,5,,46,,
,,84,,,,82,,,,7,,6,,5,,
84,,,,,,,,5,,1,2,36,,47,,
,,56,,,,83,,1,2,1,2,1,,2,,
3,,4,,5,,6,,7,,8,1,2,3,42,,
,,1,,8,,7,,6,,5,4,3,2,16,,
,,7,,2,,7,,3,4,5,,1,,2,,
3,,4,,5,,,,68,,,,,,,,
45,,,,34,,,,45,,,,56,,,,
46,,,,35,,,,74,,,,25,,,,
16,,1,,87,,7,,8,,5,,8,,4,,
2,3,2,,3,4,3,,4,5,4,,5,6,5,,
74,,,,86,,17,,28,,,,13,,,,
4,,5,,6,,,,78,,,,1,,,,
2pp5[2:1],,,,,,6,,7,,8,,1,,,,
84,,,,12,,,,76,,,,45,,,,
3,4,2,,18,,7,5,6,,45,,3,6,3,,
27,,,,6/1b,,6,,6/1b,,6,,6/1b,,,,
2,,3,4,3,,45,,6,5,6,5,6,,57,,
4,,3,2,,7,6,,15,,1,,15,,,,
7,,6,5,6,,45,,3,4,3,4,3,,24,,
5,,6,7,,2,3,,84,,8,,84,,,,
3,,2,1,2,,1,2,8,3,7,4,65,,,,
6,,7,8,7,,8,7,1,6,2,5,34,,,,
28,,8,7,61,,87,,17,,1,2,38,,12,,
,,38,,3,,37,,3,,36,,35,,,,
6,,6,5,7,,84,,1,2,3,4,51,,76,,
78,,1,8,,2,1,,28,,26,,24,,,,
3,,3,4,2,,15,,8,7,6,5,48,,23,,
12,,8,1,,7,8,,71,,73,,75,,,,
6,,4,3,2,,8,1,7,2,8,1,7,,,,
2,,8,7,6,,4,5,3,6,4,5,3,,,,
7,,24,35,46,,84,,2,,75,46,35,,15,,
,,84,,73,,62,,51,,8,,7,,,,
5b>1[2:1],,,,,,6,,7,,,,,,,,
8b<4[2:1],,,,,,2,,3,,,,,,,,
3bqq8[2:1],,,,,,4,,5,,,,,,,,
6bpp1[2:1],,,,,,5,,4,,,,,,,,
2,2,3,3,4,,6,,,,75,,84,,,,
7,7,6,6,5,,3,,,,24,,15,,,,
8,,7,6,7,,56,,56,,5,4,5,,34,,
,,2,,1,,8,,7,,6,,5,,,,
4h[8:3],,,,,,6,,7,,,,8,,1,,
2,,3,,4,,5,,6,7,8,1,2,3,4,5,
6,,4,3,2,,16,,8,7,8,7,8,,6,,
5,4,5,,35,,3,4,3,2,3,4,3,,24,,
3,,5,6,7,,83,,1,2,1,2,1,,3,,
4,5,4,,46,,6,5,6,7,6,5,6,,74,,
3,6,3,6,2,7,2,7,1,7,1,7,2,6,3,5,
4,5,
3,6,6,2,5,1,6,2,7,3,8,4,7,3,
6,2,5,1,4,8,73,84,15,26,37,48,51,62,7-3[8:1]/3,,
,,,,,,,,,,,,,,,,
,,,,,,,,E
&inote_5=(185)
{2}7h[1:4]/1h[4:1],6h[4:1]
,8h[4:1],3h[4:1]
,1-5[8:1],6-2[8:1]
,8-4[8:1],3V51[8:1],
{4}8-4[8:1],7h[4:1]/8
,1-5[8:1],1/2h[4:1]
,8-4[8:1],6h[4:1]/8
,1-5[8:1],1/3h[4:1],
{8}4,4,4-8[8:1],,4/8pp4[4:1]
,,6,6h[1:1],,5,4,3,7,2,8,1,
{16}73,,6,5,6,,3,4,3,,6,5,7,,3,4,
{8}2,2-6[8:1],,2/6V41[4:1],,8,7,6
,5-7[8:1],5,8p2[4:1],1
,2<5[4:1],3,4
,4v7[8:1]*v1[8:1],,4b
,,71,7v4[8:1]/1v4[8:1],,7b/1b,,
{2}5w1[8:1],
{8}1,2,3,
{4}4/6-1[8:1],6/1>8[8:3],18,
{8}1,2,3,
{2}4h[4:1]/8h[4:1],
{8}1h[4:1]/5h[4:1]
,,,6b-3[8:1]/2b-7[8:1],,6b/2b
,,5b/1b,
{2}1bs5[8:1]/5b^8[8:1],
{4}3>5[2:1]/4,4,4,
{8}4,4-1[8:1],5,64,,5-8[8:1],4,35
,,27,1pp4[16:5],,
{4}8,7,
{8}6,
{4}1-4[8:1]/8-5[8:1],18,
{16}36,,5,4,3,2,1,8,7h[1:1],,,,
{8}2,3<1[4:1],2,3
,,,2h[1:1],,7,6>8[4:1],7,6,,,
{8}7h[1:1],,6,5,4,3,2,1,8h[2:1]
,,4,5,3,7-4[8:1]/1-4[8:1],,7b/1b,,
{4}6<4[2:1]/5,5,5,
{8}5,5v8[8:1],4,35,,4v1[8:1],5,64
,,72,8qq5[16:5],,
{4}4,3,
{8}2,
{4}1-5[8:1]/8-4[8:1],18,
{16}27,,1,8,7,6,5,4,3h[1:1],,,,
{8}5,4pp7[4:1],6,4
,,,6h[1:1],,4,5qq2[4:1],3,5
,,,1-5[8:1],,1,6-2[8:1],6
,3-8[8:1],3,7,7h[4:1]
,,5b,1bw5[8:1]/8b,,
{2}1b,
{4}8-3[8:1]/3
,8-5[8:1]/5,8-3[8:1]/3,
{8}86,7,
{4}1-6[8:1]/6
,1-4[8:1]/4,1-6[8:1]/6,
{8}14,3qq7[8:3]
,,3,7,6,5,4,8,1,
{2}2-5[8:1]/6-1[8:1]
,8^5[8:1]/4^1[8:1],
{4}1^6[8:1]/6
,1^4[8:1]/4,1^6[8:1]/6,
{8}13,2,
{4}8^3[8:1]/3
,8^5[8:1]/5,83,
{8}1-4[8:1]/4-1[8:1]
,,1qq6[16:5]/4,,,3,3,,
{4}4-8[8:1]/5-1[8:1],45
,1^4[8:1]/8^5[8:1],18,36,
{8}34,25,16,56,47,83,45,
{16}1,8,2/7h[4:3],,,,
{4}1b,1b,1b,
{16}27,,3,4,3,,6,5,6,,3,4,2,,6,5,7,,2,4,3
,,7,5,6,,
{8}1b,1b,,
{16}82,,8,7,63,,7,6,53,,6,5,43
,,3,45,6,,4,56,7,,5,67,8,,
{8}1b/2b,7b/8b
,,1V72[4:1],,6-3[8:1],6,,,1b
,,8V27[4:1],,3-6[8:1],3,,,8b
,,4,38,7,1,3<1[4:1],,6,6h[4:1]
,,2b,1b/3b,2b
,8b/4b,3b,1b/5b,,
{16}27,,6,5,6,,3,4,3,,6,5,7,,3,4,2,,7,5,6
,,2,4,3,,
{8}8b,8b,,
{16}17,,1,2,36,,2,3,46,,3,4,56
,,7,64,3,,6,53,2,,5,42,1,,
{8}6b/8b,1b/3b
,,3pp8[16:5],,3,1h[8:3],,,5b
,,6qq1[16:5],,6,8h[8:3],,,4b,,
{8}1qq6[8:5]/2q5[8:5]
,,,,,,,,,12,83,74,
{2}5^3[8:1]/6^8[8:1],
{1}1v6[2:1]/4v6[2:1]
,1q5[2:1]*q5[2:1]/5
,1q5[2:1]/8h[2:1],
{4}5qq5[4:1]*pp5[4:1],,,1b,
{8}1V38[16:5],,,4-7[8:1],,,1b
,,8V61[16:5],,,5-2[8:1],,,8b
,,7qq4[2:1],,2,3,4pp8[4:1],,1,1h[4:1]
,,8,72,63,4^1[8:1]/5^8[8:1],,45
,,8h[4:1]/3h[8:3],,,6,6h[4:1]/1h[4:1]
,,,1<4[2:1]/3,,5,4,3,2,1,8,72,
{16}18,,3,4,3,,3,8,3
,,3,6,3,,3,1,3,,3,5,3,,3,2,3
,,8,1,8,1,8
,,36,,6,5,6,,6,1,6
,,6,3,6,,6,8,6,,6,4,6,,6,7,6
,,2,1,2,1,2
,,45,,1,5,1,,6,2,6,,3,7,3,,8,4,8,,3,7,3
,,6,2,6,,1,5,1,5,1,5,
{8}8b/4,1/5b,2b/6,3/7b,8b/4
,6/2b,1/5b,
{1}7b/3b,,,E
&inote_7=(185)
{16}
25,,3,4,3,,25,,37,,,,12,,18,,
,,81,7,6,5,8,1,2h[8:1]/6h[8:1],,,,18,,82,,
47,,6,5,6,,47,,26,,,,78,,18,,
,,18,2,3,4,1,8,7h[8:1]/3h[8:1],,,,1h[8:1]/8h[8:1],,,,
18,,2,8,2,,7,1,7,,,,18,,36,,
,,37,4,5,6,7,8,15,,,,78,,25,,
2,4,2,4,3,5,3,5,4,6,4,6,5,7,5b>5[8:5],,
{1},
{16}
47,,36,5,4,,2,3,4,,8,,73,,6h[8:1]/2h[8:1],,
,,15,,,,37,,,,3,7,3,6,2,5,
2,,36,4,5,,7,6,5,,1,,26,,3h[8:1]/7h[8:1],,
,,84,,,,26,,26,,6,2,6,3,7,4,
7,,64,3,2,,86,5,4,,8,,1,,26,,
,,47,,,,12,,,,3,8,3,8,3,8,
3,,2,2,7,,1,1,6,,78,,16,,25,,
,,37,,,,28,,1/7b,,,,,,,,
{16}
1,7,2,6,3,5,4,5,4,5,3,6,2,7,1,,
,,28,,28,,37,,6,,15,2,3,4,5,6,
7^2[8:1]/5,,,,,,,,5,,35,64,75,,13,,
,,28,,,,17,,8,6,8,6,8,,17,2,
3,4,5,6,7,8,1,2,{24}3/8b,1,2,3,4,5,{16}61,,1,2,
3,4,5,6,7,8,1,2,{24}3/6b,5,4,3,2,1,{16}83,,36,,
2h[16:1],,5h[16:1],,3h[16:1],,6h[16:1],,4,8,4,8,4,8,{24}4,3,2,
1,8,7,6,5,4,38,1,2,3,4,5,6,7,8,1,2,3,{16}4/8b,,,,
37,,2,6,1,5,8,,8,5,1,6,2,,37,,
,,18,,17,,26,,3,,84,7,6,5,4,3,
2-7[8:1]/4,,,,,,,,4,,46,35,24,,86,,
,,17,,,,82,,1,3,1,3,1,,82,7,
6,5,4,3,2,1,8,7,{24}6/1b,8,7,6,5,4,{16}38,,8,7,
6,5,4,3,2,1,8,7,{24}6/3b,4,5,6,7,8,{16}16,,36,,
7h[16:1],,4h[16:1],,6h[16:1],,3h[16:1],,5,1,5,1,5,1,{24}5,6,7,
8,1,2,3,4,5,6,7,8,1,2,3,{16}8b/4,,,,,,,,
45,,,,34,,,,45,,,,56,,7,,
46,,2,,35,,8,,74,,1,,25,,37,,
7h[8:1]/2,,1,,7h[8:1]/3,,2,,8h[8:1]/3,,4,,8h[8:1]/2,,3,,
2,3,2,,3,4,3,,4,5,4,,5,6,5,,
7/4-8[8:1],,,,43,,2,,2-4[8:1],,,,2-6[8:1]/8,,,,
2,,1,,1-4[8:1]*-6[8:1]/5,,,,1,,,,37,,,,
2pp5[8:3]/8,,,,26,,6,,6,,7,,8,,,,
13,,,,23,,2,,34,,3,,45,,4,,
6,5,7,,18,,2,4,3,,45,,3,6,3,,
27,,,,6/1b,,6,,6/1b,,6,,6/1b,,,,
3,5,3,5,3,,5,3,5,3,5,,4,,26,,
71,,1,1,,6,6,,{24}26,3,4,5,6,7,{16}8,,26,,
6,4,6,4,6,,4,6,4,6,4,,5,,37,,
28,,8,8,,3,3,,{24}73,6,5,4,3,2,{16}1,,37,,
25,,3,4,3,,2,5,2,5,2,,78,,16,,
47,,6,5,6,,7,4,7,4,7,,12,,38,,
17,,{24}82,3,4,{16}5,,18,,28,,{24}71,6,5,{16}4,,17,,
,,38,,3,,37,,3,,36,,35,,,,
2,1,2,3,2,,2,4,2,4,2,,35,,46,,
57,,{32}5,4,{16}3,,{32}7,6,{16}5,,{24}8,7,6,5,4,3,{16}26,,78,,
7,8,7,6,7,,7,5,7,5,7,,46,,35,,
24,,{32}4,5,{16}6,,{32}2,3,{16}4,,{24}1,2,3,4,5,6,{16}73,,12,,
38,,8,7,6,,4,5,3,6,4,5,3,,27,,
46,,4,3,2,,8,1,7,2,8,1,7,,36,,
15,,{24}15,26,37,{16}48,,26,,84,,{24}84,73,62,{16}51,,37,,
,,2h[16:1],,6h[16:1],,1h[16:1],,5,,5,6,73,,,,
4b>8[8:3],,,,46,,6,,6,,,,52,,,,
5b<1[8:3],,,,53,,3,,3,,,,28,,,,
2bpp6[8:3],,,,28,,8,,8,,,,74,,,,
7bqq3[8:3],,,,71,,1,,1,,,,24,,,,
3,5,3,5,3,,2-5[8:1]/7,,,,28,,7,,,,
6,4,6,4,6,,2/7-4[8:1],,,,71,,2,,,,
25,,3,4,3,,36,,47,,6,5,6,,36,,
,,6h[4:1]/3,,2,,1,,1h[4:1]/6,,7,,8,,27,,
3V51[8:3],,,,36,,7,,7h[4:1],,,,,,71,2,
3,4,5,6,7,8,1,2,{24}38,7,6,5,4,3,2,1,8,7,6,5,
{16}
84,,{24}8,1,2,{16}36,,57,,{24}8,1,2,3,4,5,{16}6,,28,,
1,3,1,,13,,3,1,2,8,1,7,8,,17,,
7,,{24}7,6,5,{16}14,,16,,{24}2,3,4,5,6,7,{16}8,,26,,
6,4,6,,57,,7,5,6,4,5,3,4,,24,,
5,3,5,3,5,2,5,1,5,8,5,1,5,1,5,1,
6,2,6,2,7,3,7,3,8,4,8,4,1,5,1,5,
48,37,26,1,8,7,26,15,48,37,2-6[8:1]/6,51,48,37,,,
{1},,E
&inote_1=(185)
{4}
1b,1,1,1,1b,1,1,1,
1b,1,1,1,1b,1,1,1,
1b,1,1,1,1b,1,1,1,
1b,1,1,1,1b,1,1,1,
