&title=大花轿
&artist=火风
&first=0
&des_5=爆一爆那个爆一爆
&lv_5=13+
&des=爆一爆那个爆一爆
&inote_5=(80)
{4},,,{64},,,,,,,
{8}
6,6h[8:1],
{24}
4,,4,5,,5,3,,3,4,,4,2h[8:1],,,B3,,,
3,,3,5,,5,4,,4,6,,6,5,,5,7,,7,4h[8:1],,E7,B6,,,
35,,,3h[8:1]/5,,,7,,7,4,,4,6,,6,5,,5,8h[8:1],,,E3,,,
26,,5,4,,4,6,,6,3,,3,7,,7,2,,2,8<1[8:5],,,26,,,
{4}
Ch[4:3],,,
{8}
1>8b[8:5],28,Ch[4:3],,
{4}
,,,Ch[4:3]/8-6-4-2-8[8:3],,,
{8}
1-3-5-7-1b[4:3],28,Ch[4:3],,,,,,,,
7pp2b[8:3],7,4,4,3>7[8:1]*p6[8:1],4,3,,
5v4[16:3],6,3,2,3V14[16:3]*pp4[16:3],3,3,,
6-8v1-3[4:1],7,3-1v8-6b[4:1],2,4,4,4h[8:1],,
5-8[8:1],6,4-1[8:1],3,6>3b[8:1],E7/B6/B7,B3/B2/E3,,
1<4[8:1]/8,27,18,
{16}
7,6,
{8}
5pp7[8:1]*qq3[8:1],46,5,,
1-3[16:1]/8-6[16:1],1-5[16:1]/8-4[16:1],18,18,
2-7[12:1]/6-3[12:1],
{16}
4,35,
{8}
26,,
6-8-3[16:3]*-1-3[16:3],
{16}
57,4,
{8}
6,,4>5[16:3]/5,6,7h[8:1],,
6>3[8:1],3p6[8:1],C,E1,E3h[8:3],Chf[8:3],E7h[8:1],,
1b>8b[8:3],,,,,,
{8}
8<1b[8:5],7bx/1bx,8bx/Ch[4:3],,
{4}
,,,Ch[4:3]/1b-3-5-7-1b[8:3],,,
{8}
8-6-4-2<1-5b[4:3],71,8bx/Ch[4:3],,,,,,,
{16}
,5bx/6bx,
7hbx[16:1]/8hbx[16:1],,5bx/6bx,3bx/4bx,
1hbx[16:1]/2hbx[16:1],,3bx/4bx,5bx/6bx,
7bx-3b[16:1]/8bx-4b[16:1],3bx/4bx,7bx/8bx,5bx/6bx,7bx/8bx,,,
4bx/3bx,
2hbx[16:1]/1hbx[16:1],,4bx/3bx,6bx/5bx,
8hbx[16:1]/7hbx[16:1],,6bx/5bx,4bx/3bx,
2bx-6b[16:1]/1bx-5b[16:1],6bx/5bx,2bx/1bx,4bx/3bx,2bx/1bx,,,,
7hbx[16:1]/8bx,,2bx/6bx,4bx/5bx,3bx/7bx,8bx/2bx,3bx/7bx,4bx/6bx,
1bx/8bx,5bx/6bx,3bx<6b[16:1]/7bxp2b[16:1],4bx/5bx,1hbx[16:1]/8hbx[16:1],,
{64}
2bx/7bx,E7/E3,E6/E4,E5,,,,,
{16}
7bx/5bx,6bx/4bx,3bx/5bx,2bx/4bx,1hbx[16:1]/8hbx[16:1],,
5bx/7bx,2bx/4bx,8b-5>4-1<8b[16:3]/1bx,,
A7/D7/A6/1bx/E7f/B7/B6,,A2/D3/A3/8bx/E3f/B2/B3,,
{64},
{16}
,,
2hbx[16:1]/1hbx[16:1],,4bx/3bx,6bx/5bx,
8hbx[16:1]/7hbx[16:1],,6bx/5bx,4bx/3bx,
2bx-6b[16:1]/1bx-5b[16:1],
6bxh[32:1]/5bxh[32:1],2bxh[32:1]/1bxh[32:1],
4bxh[32:1]/3bxh[32:1],2bx/1bx,,,
5bx/6bx,
7hbx[16:1]/8hbx[16:1],,5bx/6bx,3bx/4bx,
1hbx[16:1]/2hbx[16:1],,3bx/4bx,5bx/6bx,
7bx-3b[16:1]/8bx-4b[16:1],
3bxh[32:1]/4bxh[32:1],7bxh[32:1]/8bxh[32:1],
5bxh[32:1]/6bxh[32:1],7bx/8bx,,,,
2hbx[16:1]/1bx,,7bx/3bx,5bx/4bx,6bx/2bx,1bx/7bx,6bx/2bx,5bx/3bx,
8bx/1bx,4bx/3bx,6bx>3b[16:1]/2bxq7b[16:1],5bx/4bx,8hbx[16:1]/1hbx[16:1],,
{64}
7bx/2bx,E3/E7,E4/E6,E5,,,,,
{16}
2bx/4bx,3bx/5bx,6bx/4bx,7bx/5bx,8hbx[16:1]/1hbx[16:1],,
2bx/7bx,3bx/6bx,4hbx[16:1]/5hbx[16:1],,1hbx[16:1]/8hbx[16:1],,
{64}
27,36,45,,,,,,,,,,,,,,
{64}
36,27,1h[64:13]/8h[64:13],,,,,,{8},
{64}
27,36,4h[64:13]/5h[64:13],,,,,,{8},
{64}
36,27,1h[64:13]/8h[64:13],,,,,,{8},
{64}
27,36,45,,,,,,{8},
2/8<4[4:1],37,4q8[16:3]/8,3,2q6[8:1]*>5[8:1],2,2,,
{64}
36,27,1h[64:13]/8h[64:13],,,,,,{8},
{64}
27,36,4h[64:13]/5h[64:13],,,,,,{8},
{64}
36,27,1h[64:13]/8h[64:13],,,,,,{8},
{64}
27,36,45,,,,,,{8},
3b/4b,2b/1b,8b/7b,5b/6b,
Chf/B1/B2/B3/B4/B5/B6/B7/B8/E1/E2/E3/E4/E5/E6/E7/E8/A1/A2/A3/A4/A5/A6/A7/A8/D1/D2/D3/D4/D5/D6/D7/D8,
Chf/B1/B2/B3/B4/B5/B6/B7/B8/E1/E2/E3/E4/E5/E6/E7/E8/A1/A2/A3/A4/A5/A6/A7/A8/D1/D2/D3/D4/D5/D6/D7/D8,
Chf/B1/B2/B3/B4/B5/B6/B7/B8/E1/E2/E3/E4/E5/E6/E7/E8/A1/A2/A3/A4/A5/A6/A7/A8/D1/D2/D3/D4/D5/D6/D7/D8,
,,,,E
