&title=666
&artist=RoughSketch
&first=0.008
&lv_5=14+
&des=牢次
&des_5=牢次
&inote_5=
(166.5){4},{8},,,4h[16:1],4h[16:1],6h[16:1],
6h[16:1],3h[16:1],3h[16:1],7h[16:1],7h[16:1],2h[16:1],2h[16:1],8h[16:1],
8h[16:1],1h[16:1],1h[16:1],{16}8-5[16:1]*-5q8[8:11],1,7,2,{8}8b,,,,,,,,,,,,,{4}7h[8:3],
{8},8,8,8,
8,7,7,7,7,6,6,6,
6,5,5,5,5,{16}4,5,3,6,4,5,
2,7,4,5,1,8,1,8,1,8,{8}Ch[2:1],,,,B6/E6/B5/B4/B3/E4,
,Cf,,7b/2b,7b/2b,{24}1x,2x,3x,
{16}4x,6bx,{24}2x,3x,4x,{16}5x,7bx,{24}3x,4x,5x,{16}6x,7bx,{8}8b/4b,8b/4b,{24}8,7,6,
{16}5,{48}2x,(666),,,,,,,,{4}2bh[2:1]/Cf,,,,7,
7h[2:1],{16}8bx,1x,2x,3x,
{4}4x,,,8,
8,2,2,6,
6,1,1,7,
7,4,4,8,
8,7,7,6,
6,5,5,4,
4,4xh[2:1],,3h[2:1],
,1h[2:1],,2h[2:1],
,Cf,,7x<5[2:1],
7x,1x>4[2:1],1x,7x<6-4[2:1],
7x,8xq4[2:1],8,7x,
7xh[4:1],{8}8bx,1x,2x,3x,{4}4x,
{8},,7b,6x,5x,4x,{4}3x,
{8}2b,3x,4x,5x,{4}6x,{8}1b,2,
3,4,{4}5,,8,
,8,{8},,8,7,
{4}6h[4:3],,,5bx,
5,5bx,5,5bx,
5,5bx,5,5bx,
5,{8}5bx,4x,3x,2x,{4}1x,
6,4,7,3,
7,2,8,1b,
,8,{16},7,,,,,,6bh[16:21],
,,,,{4}1,{16},2,,,,,,3,
,,,,{4}4b,,8,
1,{8}8,7,6,5,{4}4,
1,1,8,8,
2,2,7,7,
4,4bw8b[0.0901##0.6306],(333){2},
{4},,,{16},,{32},2bx,,,,2bx,
,,,2bx,,,,,,,{8}6h[8:1]/1h[8:1],,4h[8:1]/3h[8:1],,6h[8:1]/8h[8:1],
,3h[8:1]/2h[8:1],,7h[8:1]/5h[8:1],,1h[8:1]/4h[8:1],,5h[8:1]/3h[8:1],
,7/8,{16}6,1,{8}5h[8:1]/2h[8:1],,7h[8:1]/1h[8:1],,4h[8:1]/3h[8:1],
,8h[8:1]/5h[8:1],,4h[8:1]/2h[8:1],,6h[8:1]/7h[8:1],,5,
3,3h[8:1]/5h[8:1],,8h[8:1]/2h[8:1],,6h[8:1]/3h[8:1],,8h[8:1]/5h[8:1],
,4h[8:1]/3h[8:1],,6h[8:1]/1h[8:1],,7,,6bx,
{16},5bx,{8}7h[8:1],4bx,7h[8:1],{16},,8x,1x,2x,3x,{8}4x,
6/5bx,5/6,{4}5/6bx,{8},3,1,2,
1,5w1b[4:1],,5bx,,,,7xh[16:1],
{16}4,7h[16:1],,,,,{8}5/8h[8:1],,3/8h[8:1],,4/8h[8:1],
,7,6,3/5h[8:1],,4/5h[8:1],,2/5h[8:1],
,3/5h[8:1],,6,1bx,6,2bx,6,
3bx,6,,7x,,1-3[8:1],,7-5[8:1],
,8-4[8:1],,6x,,6-8[8:1],,4-2[8:1],
,5-1[8:1],,3x,,3/7,{4}3/7,
{8},(166.5)7qq2[4:1]/3qq6[4:1],,7/3,,,{4}Ch[4:1],
B8/B1,{16}E8,B8,B1,E2,E6,B5,B4,E4,B1,B2,B3,B4,
B5,B6,B7,B8/Cf,{48},,,,,,,,,,{24}8-5[16:1]*<7v5[16:1],{48},,,,,8,,,,,,,{4}E7/B6/B7f,
{8}2h[16:1],2h[16:1]/1h[16:1],7h[16:1],7h[16:1]/6h[16:1],3h[16:1],3h[16:1]/4h[16:1],6h[16:1],6h[16:1]/5h[16:1],
2h[16:1],3h[16:1]/2h[16:1],7h[16:1],7h[16:1]/6h[16:1],{16}1,8,1,8,{4}1qq4[8:1],
C,{8}6h[16:1],5h[16:1]/6h[16:1],3h[16:1],4h[16:1]/3h[16:1],7h[16:1],8h[16:1]/7h[16:1],
2h[16:1],1h[16:1]/2h[16:1],3b<6[8:1],6b-2[8:1],2b<7>2[4:1],7b,,,,,{4}8<4[4:1],
{16}4,3,2,1,{4}8<4[4:1],
{16}4,3,2,1,{4}8<6[8:1],{16}1,2,{8}3,8b/1b,8b/1b,
{16}7-3[32:3],2,8,1,{8}7/2-6[32:3],1,7/2,8h[8:1],,3/6,
{16}7,2,{8}7,8-5[32:3]/1-4[32:3],8/1,{4}8/1,5w1[16:1],
5b,{16}1,2,3,4,5,6,7h[32:1],8,1/5,,,5/2,
,,{8}5/3,{16}5b/4b,6,7,8,1,2,3,4,5/1,6,7,8,
1,2,3,4,5/1b,6,7,8,1,2,3h[32:1],4,5/1,,,5/1,
,,{8}5/1,(333){4}5b-3[4:1],3b-6[4:1],6b-2[4:1],
2b-7-1[0.1802##0.3604],8h[#0.3603592],,(166.5),
{16}1b/6-8[16:1],2,3,4,{4}5,6-8[16:1]/1-4[16:1],{32}B3,E4,{16}A4,,,1/6-8[16:1],
2,3,4,3h[32:1],2,,,{2}1>2-4[16:1]/5<7[16:1],
{8}8b,{16}4,5,{8}4,7b,4/5,2b,{16}5,4,{8}5,
{4}7b-4[16:1]/2b-5[16:1],2b/7b/B5/B4/E5f,{2}8x/Ch[4:15],
{4},B7,{16},,,,,,,,,,,,E8,
B7,B6,E6,,,,,{8}B5,B4,
,,,,E2,B2,B3,B4,
E2,B2,{4}B3,{16}4,5,4,5,4,5,4,5,
4,5,4,5,3x,6x,4,5,4,5,4,5,4,5,4,5,
4,5,4,5,4x,5x,4x,5x,3,6,3,6,2,7,2,7,
1,2,3,4,5,6,7,8h[16:7]/4h[16:1],,,,,,,{8}4,
4-1[0.3604##0.045],8<7v5[0.2703##0.045]*-5[0.2703##0.045],(333){4}4,8b/B6/E6/B5,(166.5){8}2b,2b,
{24}1,2,1,3,{48},{16}8,{8}2b/7b,2b/7b,{24}8,7,8,6,{48},{16}1,{8}7b/2b,7b/2b,
{24}1,2,1,3,{48},{16}8,{8}2b/7b,5b/4b,{4}6b/3b,{8}6b,6b,
{24}5,6,5,7,{48},{16}4,{8}6b/3b,6b/3b,{24}4,3,4,2,{48},{16}5,{8}3b/6b,3b/6b,
{24}5,6,5,7,{48},{16}4,{8}6b/3b,2b/7b,{4}1b/8b,7xh[4:5]/C,
,C,,8x,
8x,8h[8:1]/1h[8:1],8h[8:1]/1h[8:1],{16}1,8,4,5,
1,8,3,6,{32}1,8,7,6,5,4,3,2,1,8,7,6,5,4,3,2,{64}1bpp6b[2:1]/8bqq3b[2:1],B8/B1,Cf,B5/B4,{16}E5/D5,,,,,,,,,,,,,,,{8}5/6h[8:1],
2,
4/3h[8:1],7,8/1,7/2,{16}8bx/1bx,8bx/1bx,{8}1bx/8bxh[8:1],2,4/5,
{16}3,3,7,7,{8}8/6,5/2,7/3,1/6,8/7,7/6,
{16}2/8h[16:1],3x,4x/8h[16:1],5x,{8}8/6x,2/1,5/6,{16}1b,8b,{8}1b,3/6-1[16:1],
7,6/3-8[16:1],2,3/5,6/7,8/1,3/2,{16}5b,4b,
5b,4b,{8}5b,{4}5bw1[8:1],5b,{8}2/3,{16}1/4h[16:1],8,
{8}4/7,{16}6,5,1,2,4,3,7,8,{8}6b/1b,6b/1b,7,
{16}1,1,{8}8,{16}2,5,2,6,3,6,{8}6,{16}8,1,2/7,3/8,
{8}4/1,3x/2x,5/6,8/1,4/3,{16}7b,8b,{8}7b,8/7,
7/6,6/5,{4}5/4-8[16:1],4b/2bh[8:1]`Cf,{16}8,1,6,5,
3,2,7,8,5,4,6,3,4,2,6,5,7,5,7,3,
5,3,,8,6,7,2,4,3,7,5,{32}6,5x,{16}4x,8x,7x,1,
6,2,5,2,1,3,8,4,7x,1,2,3,8,1,2,7,
8,1,6,7,8,1,4,4,4,5,5,5,2b,2,6,6,
3,3,7,7,{32}1x,8x,7x,6x,5x,4x,3x,2x,{4}8xh[4:1],{16}3b,3,7,7,
4,4,{32}5x,6x,7x,8x,1xw5[8:1],2x,3x,4x,{8}5x,{16},,,,8b,4,7,3,
6,2,5,1,5b,1,5,2,6,3,7,4,8,1,8,1,
8,1,8,1,{4}C,E7/C/E3,{16}3b,3,3,3,
3,3,3,3,3b,3,3,3,3,3,3,3,3b,3,3,3,
3b,3,3,3,{8}2b/4b,4b/7b,6b/5b,6b/8b,{16}7b,7,7,7,
7b,7,7,7,7b,7,7,7,7b,7,7,7,{8}8b/6b,8b/6b,
{24}1x,2x,3x,4x,{48},{16}6bx,{24}2x,3x,4x,5x,{48},{16}7bx,{24}3x<4-7[2:1]*s7[2:1],4x,5x,6x,{48},{16}8bx,{4}3b,
E
