&title=メタルホーク BGM1
&artist=細江慎治
&first=0
&des=えども~ん
&lv_5=12+
&inote_5=(153.25){1},
{24}2,,2,,2,,7,6,5h[24:4],,,,4,,2,,2h[24:4],,5,,7,,7h[24:4],,4,,2,,2h[24:2],,5,,6,,7,,2,3,4h[24:4],,,,5,,7,,7h[24:2],,
{12}4b,6,2,8-4[6:1]/1h[12:3],,,,,,
{12}1,7,4,5^8[8:1]/3h[12:3],,,,,,4-2[8:1],,,5,6,7,
{12}8-4[8:1]/1h[12:3],,,,,,2^5[8:1]/4-8[8:1],,,,,,
{12}8h[12:1],6h[12:1],7h[12:1],1h[12:1],4h[12:1],2h[12:1],8h[12:1],4h[12:1],8,2b/6b,,,
{12}5,3,7,1-5[8:1]/8h[12:3],,,,,,
{12}1,2,6,7h[12:3]/4^1[8:1],,,,,,5-7[8:1],,,1,2,3,
{12}4q2[6:1]/6h[12:3],,,,,,8<4[8:1]*>4[8:1],,,,,,
{12}3h[12:1],4h[12:1],3h[12:1],6h[12:1],5h[12:1],7h[12:1],2h[12:1],4h[12:1],1h[12:1],7h[12:1],4h[12:1],8h[12:1],
{12}2-6[8:1],,6h[12:1]/2h[12:1],,,,1-5[8:1],,7,1h[128:1],,,8-4[8:1],,3,8h[128:1],,,2^5[8:1],,6,2h[128:1],8,8,7p3[8:1],,3,7h[128:1],,,1s5[6:1],,7,1h[128:1],,,8z4[6:1],,2,8h[128:1],,,1h[12:2],,7,4,5,2,
{12}18,,1,8,2,6,6^1[8:1],,4,6h[128:1],4,4,3-8[8:1],,5,3h[128:1],6,6,7^4[8:1],,4,7h[128:1],2,
{12}3,3v6[8:1],,5,3h[128:1],7,8,8z4[6:1],,4,8h[128:1],3,2,2q6[8:1],,6,2h[128:1],5,5,2,2,2,8,8,8,
{12}1h[12:6],,,,,,8,,3,6p7[4:1],2,7,3,,,1b,,,
{12}37,,6h[12:4],2,,,3h[12:6],,2,2,,,8h[12:4],,3,,4,,78,,6,1h[12:3],,,8,,26,,3/5<4[12:5],,
{12}7h[12:4],,,,,,8,8,8,1,1,1,7h[12:6],,,2,,,4>5[12:4],,2,,,,3h[12:6],,,6,,,8,,6,,5,,
{12}24,,6,8h[12:3],,,2,,3,,4,,
{1}7b,
{12}4,4,5,2,1,8,3,3,4,2,1,8,4,4,5,2,1,8,3,3,4,2,1,8,
{12}1,3,4,8,6,5,2,3,4,7,6,5,
{12}3,1,5,8,1,1,6,8,5,1,8,8,
{12}3,2,4,1,1,1,
{12}7,8,7,1,6,1,5,2,5,3,4,3,5,7,3,46,,,
{12}1,7,8,16,,,1,4,3,7,5,6,1^4[10:1]*^6[10:1],,,1,,,28,,2b/8b,,,,
{12}1^6[6:1],,7,7,,,8>4[5:1],,2,2,,,2<5[4:1],,6,6,,,
{12}1,8,1,7,2,6,
{12}3,4,3,3,5,3,3,4,3,3,5,3,3,4,3,2,5,2,1,5,2,4,3,5,
{12}4,5,4,5,6,5,6,7,6,7,8,7,1,8,1,7,2,7,1,8,1,7,2,6,
{12}4,3,5,3,4,6,5,7,4,7,5,6,
{12}8^5[10:1]*^3[10:1],,,8,,,17,,1h[12:3]/7h[12:3],,,,
{24}1,2,3,,1,8,7,,2,3,4,,8,7,6,,3,4,5,,7,6,5,,3,4,3,,6,5,6,,4,5,4,,
{12}5w1[8:1],,,,,,
{24}1,2,3,7,6,5,1,2,3,7,6,5,1,2,3,7,6,5,
{8}3h[16:1],3h[16:1],
{24}7,8,7,1,8,1,7,8,7,1,8,1,7,8,7,1,8,1,
{8}6h[16:1],6h[16:1],
{24}2,3,4,,6h[12:1],,8,1,2,3,4,,
{24}7,6,5,,3h[12:1],,1,8,7,6,5,,
{24}2,1,2,,7h[12:1],,5,6,5,6,5,,
{24}7,8,7,,1h[12:1],,4,2,4,2,4,,
{24}3,2,1,8,7,,5,4,3,2,1,,4,5,6,7,8,,2,3,4,5,6,,
{12}8^5[10:1]*^3[10:1],,,8,,,17,,1b/7b,,,,
{12}1,,8,1,,7,26,3,3,6,5,4,
{12}34,2,1,3,2,1,38,2,1,3,2,1,
{12}62,7,1,6,7,8,38,2,8,2,1,8,
{12}3,4,5,5,,,86,7,7,82,,,7^1[12:1]/3^5[12:1],,37,,,,13,2,2,17,,,8-2[12:1]/4-6[12:1],,84,,,,17,8,2,13,,,
{12}35,2,4,2,3,1,82,7,6,1,2,8,
{12}8^5[10:1]/1^4[10:1],,,81,,,17,,1h[12:3]/7h[12:3],,,,
{12}4-1[8:1]/5-8[8:1],,45,4b/5b,,,
{12}1h[12:3],,,8h[12:3],,,6,7,5,8,3,7,5-1[8:1]/6h[4:1],,,,,,
{12}3-8[8:1]/5,,6,3b,,,
{12}8,7,2,1,8,2,17,,26,,8,2,3-8[8:1]/7-4[8:1],3h[12:2]/7h[12:2],,,,,6-1[8:1]/3,,2,6b,,,
{12}7,8,7,6,1,2,8,3,1,2,8V64[12:2],,4>6[12:3]/8,,,,,,
{12}1,2,3,1,8,7,2,3,4,7,6,5,3,4,3,6,5,6,4,5,4,5,5,5,
{12}1h[12:6],,,,,,8,7,6,27,3,4,5-7[12:1],,4,2,,4,4p8[6:1],,5,7,,,6,7,1,3h[12:3]/8,,,1,2,7,16,7,2,5,4,6,73,,8,8,1,8,17,,,
{12}5-8[6:1],,4,1b,,,3,2,1,5,6,7,1/2h[12:2],,7,65,3,6,18,,7,,3,,
{12}6b-3[8:1],6,6,1b-5[8:1],1,1,8b-3[8:1],8,8,2b-6[8:1],2,2,4b^7[8:1],4,4,1b^4[8:1],1,1,6b-8[12:1],6,6s2[12:22],
{4}3h[4:8],,,,,,,,{12},,1b/8b,
