&title=MESMERA
&artist=qfeileadh/空読無 白眼
&first=0.01
&des=冥S冥RA
&des_5=冥S冥RA
&lv_5=14
&inote_5=(256){4},{16},,,,,,,5<4[8:23],{1},,,{4},{16},,,2h[32:41]/6h[16:21],
{1},{4},{32}3h,
4h,{16}5h,,,{4}8b/7b,
6,7/8,{8}1,1h[4:1],,6,
{4}6/2b,8,1/2,{8}3,3h[4:1],
,8,,6/2b,,1,,8/7,
,6,{4}6h[4:1],{8}1,1/5b,,2,
,4/3,{16},,,,5/4h,,,6/4h,,,{8}7/4h,
{16},8/4h,,,{4}5b/7b,2,7/5,
{8}8,8h[4:1],,3,{4}3/7b,8,
7/1,{8}6,6h[4:1],,1,,3/7b,
,8,,4/6,,2,{4}2h[4:1],
{8}8,8/4b,,1,,2h[4:1]/8h[8:3],{24},,,,,,{6}1,
7,5,8,2,4,
{4}8-5[8:1],5V72[2:5]/8V63[2:5],{1},,{4},,,{16},,{32},3h[2:9]/4>5[4:15],
{1},,,,{4},,{32}2h,
1h,
8h,7h,,,,,,,{4}5b/4b,{8}3,4,{4}2h[4:1],
{8}6,5,6,5,{4}7b/4,{8}6,5,
{4}7h[4:1],{8}4,6h[4:1],,3,4,5/2b,
,3,4,1h[4:1],,7,8,7,
8,6b/1,,6,5,8h[4:1],{16},,,,2/1h,
,,3/1h,,,{8}4/1h,{16},5/1h,,,{4}7b/3b,
{8}6,5,{4}7h[4:1],{8}5,6,3,4,
{4}5/2b,{8}3,4,{4}2h[4:1],{8}5,3h[4:1],
,6,5,4/7b,,3,4,1h[4:1],
,7,8,6,5,7b/4,,6,
5,8h[4:1],,,(192)2/7,{16}3,4,{8}2,{16}6,5,
{8}7,{16}4,5,{24}3,4,3,4,,,,,6,5,6,5,,,,,4,5,
4,5h[4:1],,,,,,3,4,5h[8:1],,,7,6,{12}5h[8:1],{24},2,3,4h[48:7],{48},,,,,{16}7,
5,6,3,5,4,7,{8}1b,(96),(192),,,,,,,,,,,,,,,,,,,,2/7<4[2:1],
,2,,2,,2,
,2,,6/1>4[2:1],,6,,6,
,6,,7/3V15[4:1],{2}7-5[8:1],
{8}4/3,2,{4}8,{8}5/6,7,{4}1,
8/2-5[8:1],8,7/6-1[8:1],7,
{8}4/2,6,{4}3,{8}6/4,8,{4}5,
2/8-5[8:1],2,3/4-1[8:1],3,
{8}4/8,2,{4}6,{8}1/5,7,{16}1,7,2,6,
3,5,4,5,{24}3,4,5,6,,,1,2,3,4-8[8:1],,,,,,8,7,6,
{4}5-2[8:1],5/6-1[8:1],{2}3V57[4:1]/6V48[4:1],
{24},,,1/2,3,4,{4}5>2[6:1],{16}8,7,6,5,8,7,6,5,
8/4,7/3,6/2,5/1,{4}4/8-4[8:1],{8}5-1[8:1],6h[8:3],,,8,
7,{4}6/1V75[4:1],{8}5V31[4:1],,,8h[8:3],
{24},,,,,,{12}1,,7,,5,,{4}1/2,
{8}2b/8b,{16}6,5,{8}6,{16}6,1,{8}6,{16}6,3,{8}8,5,
7b/1b,{16}3,4,{8}3,{16}3,8,{8}3,{16}3,6,{8}1,4,
2b/8b,{16}7,5,{8}7,{16}7,1,{8}7,{16}7,3,{8}8,5,
1b/7b,{16}2,4,{8}2,{16}2,8,{8}2,{16}2,6,1-5[8:1],4,1,4,
{4}1b,{8}6,6,2,2,4,4,
1b/8b,2,5,4,7,1,8,2,
{16}7,6,2,3,6,5,3,4,{4}8h[4:1],{16}3-5[16:1],,,7-4[16:1],
,,{8}1-5[16:1],{16},5,{32},,,,7<4[32:3],8<4[32:3],,,,,,,,,,,,,,,{4}2b/1b,
{16}8/3h[16:3],,,7,{8}5,3,{16}5/2h[16:3],,,1,
{8}3,7,{16}1/6h[16:3],,,5,{8}7,3,{4}2>5[8:1]/5<8[8:1],
5/2,{16}7/4h[16:3],,,1,{8}3,7,{16}1/6h[16:3],,,5,
{8}7,3,{16}5/2h[16:3],,,1,{8}3,7,{4}6-1[8:1]/1-5[8:1],
6/1,{16}3/8<5[8:1],,,2,{8}8,2,{16}4/3>8[8:1],,,5,
{8}3,5,{16}1/6>3[8:1],,,2,{8}6,2,{4}1-5[8:1]/4-7[8:1],
4/1,{16}8/4-1[8:1],,,6,{8}4,6,{16}2/7-4[8:1],,,1,
{8}7,1,{16}5/2-7[8:1],,,4,{8}2,4,{4}5-8[8:1]/8-5[8:1],
5b/8b,{16}3,,,2,{8}4,4,{16}8qq7[16:3],,,2,
{4}8b,{16}3,,,7,{8}5,5,{4}8h[4:1],
{8}4>1[32:3],4,{32}8,7,6,5,,,,,{8}6<1[32:3],6,{32}2,3,4,5,,,,,{16}3,
6,4,5,2,7,4,5,{32}1,2,3,4,5,6,7,8,1,2,3,4,5,6,7,8,
{16}5b/1b>4[8:1],,,7,{8}1,7,{16}3-7[8:1],,,5,{8}3,5,
1/8,{16}2,4,3,6,4,5,2-6[8:1],1,3,8,2,,,7,
8>3[8:1],,,6,{8}8,6,{16}4-1[8:1],,,7,{8}4,7,
2/8,{16}7,5,6,2,4,3,6>3[8:1],8,7,1,6,,,2,
4-8[8:1],,,1,{8}4,1,{16}7-3[8:1],,,4,{8}7,4,
1/2,{16}8,5,6,3,4,1,5-8[8:1],3,6,4,5,,,2,
1<6[8:1],,,3,{8}1,3,{16}5-8[8:1],,,2,{8}5,2,
1/7,{16}3,5,4,6,5,7,3-8[8:1],4,2,5,{4}3,
{32}1b/7bV16[4:1],6,5,4,,,,,{8}2,3,4-1[8:1],5,{16}6,,,8,
{8}2-6[8:1],2,{16}6,,,8,{8}5>2[8:1],5,{16}8,7,6,5,
{4}4b<2[4:1],2,{8}4<7[8:1],3,{4}2,
{16}1,1,,8,{8}8,2/7,{16}3,4,{8}3,{16}2/5,,,1,
{8}7-3[8:1],{16}6,8,{8}7,1,2-6[8:1],{16}3,4,{8}2,8,
4/7-4[8:1],{16}6,5,{8}7,3,{16}2-5[8:1],4,{8}1,{16}2/8,,,7,
{8}4-8[8:1],{16}5,6,{8}4,5,{16}1>4[8:1],4,1,4,{8}1,6,
{4}7b/3b,{12}2,2,2,4,4,4,8p4[12:1]*q4[12:1],8,8,
(256){4},7b/1b,8,2/1,
{8}8,8h[4:1],,3,{32}3/7b,6,{16}5,,,{4}1,
8/7,{8}6,6h[4:1],,8,{32},,,,1/5b,2,{16}3,
,,{8}7,,5/6,,2,{4}2h[4:1],
{8}8,{32}8/3b,4,{16}5,,,{8}7,,8/1,{16},,,,4/5h,
,,3/5h,,,{8}2/5h,{16},1/5h,,,{4}2b/4b,
7,2/4,{8}1,1h[4:1],,6,
{32}6/2b,3,{16}4,,,{4}1,2/8,{8}3,3h[4:1],
,1,{32},,,,8/4b,7,{16}6,,,{8}3,,4/2,
{32},,,7,,,,,{4}7h[4:1],{8}1,{32}1/6b,5,{16}4,,,{8}8,
,7h[8:3]/1h[4:1],{16},,,,3,4,5,6,7,8,1,2,
3,4,5,6,7,8,1,2,{4}7b/3b,{8}6,5,
{4}7h[4:1],{8}8,8,7,6,{32}1b/5,2,{16}3,,,{8}6,
5,{4}8h[4:1],{8}2,2h[4:1],,8,
7,{32}2b/6,3,{16}4,,,{8}7,5,1h[4:1],,2,
2,1,8,{32}3b/7,4,{16}5,,,{8}7,5,8h[4:1],
{24},,,,,,{12}1,2,7,6,2,3,6-3[6:1],,,{4}2b,
{8}1,4,{4}2h[4:1],{8}1,1,
2,3,{32}8b/4,7,{16}6,,,{8}3,4,{4}1h[4:1],
{8}7,7h[4:1],,1,2,{32}7b/3,6,{16}5,,,{8}2,
4,8h[4:1],,7,7,8,1,{32}6b/2,5,{16}4,
,,{8}2,4,1h[8:3],{24},,,,,,{12}5,3,5,
{4}3,{12}7,5,7,{24}5,,,,,2,,8,,2,,8h[4:1],
,,,,,5,,6,,,,,{12}3,4,{24},,,2,,{8}1,
{24},,{12}3,{24}4,,,8,,{8}7,{32}1,,,,,3,,,{8}5,7,
{16}1,6,1,6,1,6,1,6,2,5,2,5,2,5,3h[32:123],4>5[12:37],
{1},,,{4},,,{32}2h,
1h,8h,7h,,,,,,,,,{8}3,
5,1,6,4,8,2,
{48}2,,,,,4V28[24:5],,,,,{24}4,{48},,,{16}8V64[4:1],{48},,{12}8,{4},{16},,{32}3b,2b,{16}1b,
E
