&title=olvido
&artist=ADA feat AKA
&first=-0.1
&des_1=poema
&des_2=poema
&des_3=poema
&des_4=poema
&des_5=poema
&lv_5=13+
&des_6=poema
&des_7=poema
&des=poema
&inote_5=(175)
{8},,,,,,,,,,,,
B5/B6/Ch[8:12]/A1,,,,A2,,,,A3,,,,A4,,,,
E3h[8:12]/A5,,,,A6,,,,A7,,,,A8,,,,
E7h[8:12]/A1,,,,A2,,,,A3,,,,A4,,,,
1/A5,,,,2/A6,,,,1s5[8:4]/A7,,,,,,,,
78,,,15,,,7-4-7[8:6]/8-3-8[8:6],,,,,,,,,,
21,,,84,,,2-5-3-1[8:6]/1-6-8-2[8:6],,,,,,,,,,
78,,,15,,,7/8h[8:2],,6,6,5,5,7,7,2,1,
{24}
6b,5,4,3,2,1,8,7,6,
3b,4,5,6,7,8,1,2,3,
6b,5,4,3,2,1,8z4[8:4]*-5[8:4]/B2/B3,,,
{8},,,,,,,
3,3,62,5h[8:9],,,2,,,2,,,3,,5,6,
4,5,64,7h[8:9],,,3,,,3,,,4,,6,7,
5,4,35,2h[8:9],,,6,,,6,,,5,,3,2,
6,6,37,4h[8:3],,,7v5-3[8:4],,,,,,,,1-5[8:1],,1b/6,,
34,,2,2-8[8:1],,7,7-3[8:1],,4,4-6[8:1],,1,1<6[8:1],,
1b/2,,
34,,2,1,2,4,3>5[8:4],,4h[8:4]x,,,,,,
1b/5,,34,,4,3,5,4,6,5,7,7,8,8,65,,7xqq4[8:5]/4xqq1[8:5],,,,,,,,
B2h[8:6]/Ch[8:6]/B6h[8:6],,,,,,,,
{32}8bx,7,6,5,,,1bx,2,3,4,,,8bx,7,6,5,{16}A4,E5,B6,E7,
{32}1bx,2,3,4,,,8bx,7,6,5,,,1bx,2,3,4,{16}A5,E5,B3,E3,
B7h[8:2]/Ch[8:2],,,,,,,,
{32}1bx,2,3,4,,,8bx,7,6,5,,,1bx,2,3,4,{16}A5,E5,B3,E3,
{32}8bx,7,6,5,,,1bx,2,3,4,,,8bx,7,6,5,{16}A4,E5,B6,E7,
B2h[8:2]/Ch[8:2],,,,,,,,
{32}5bx,6,7,8,,,4bx,3,2,1,,,5bx,6,7,8,{16}A1,E1,B7,E7,
{32}4bx,3,2,1,,,5bx,6,7,8,,,4bx,3,2,1,{16}A8,E1,B2,E3,
B6h[8:2]/Ch[8:2],,,,,,,,
{16}4x,5,4,5,3,6,3,6,
{24}2x,3,4,5,6,7,
8/4x,5,6,7,8,1,2-8-6-4[8:4],,,,,,
{8}B3,,C,,B7,,
{8}8,7,7>2[16:3]/5,,76,,5,,
{8}3,4,2<7[16:3]/4,,23,,4,,
{8}5,6,8>3[16:3]/6,,87,,6,,
{8}4,3,1v6[16:3]/3,,12,,3,,
{8}5,6,7-4[16:2]/4,4-8[8:1],3x,,2,,
{8}1,2,3-8[16:2]/8,8-4[8:1],7x,,6,,
{8}5,6,8-4[16:2]/4,4-7[8:1],3x,,
2-5[8:1],,6-1[8:1],,4-7[8:1],,8-3[8:1],,6,,
6>3[16:3],,7,8-4[8:1],,,
2<7[16:3],,3,4-8[8:1],,{24},,,5x,,,,,,{8}6h[8:2]/5,,
5>2[16:3],,6,7-4[8:1],,,
1<6[16:3],,3,4-8[8:1],,{24},,,5x>1[8:2],,,,,,
{8}1<6[8:2],,6pp5[8:8]b*<2-4v1[8:8]b,,,,,,,,,,,,
34,,1/5h[8:2],,
2,2,6,6,5,5h[8:1],8,7h[8:1],
{24}6,5,4,3,2,1,
8/6,5,4,3,2,1,
8/6,5,4,3,2,1,
8w4[8:1]/6,,,,,,
{8}8b>7<8[8:24],,,,,,,,,,,,,,,,,,,,,,,,,,,,,,,,
{8}7,6,4,3,2h[8:2],,,,
5,4,2,1,8h[8:2],,,,
2b/3b,,,7b/8b,,,1b-6[8:6]/2b-5[8:6],,,,,,,,,,
{8}2h[8:4]bx/6h[8:2],,,,8h[8:2],,3,4,5h[8:2]/1,,8,74,
{16}6,2,7,3,6>2[8:2],2,{8}7,3x<7[8:2]/6x,,1-5[8:1],,1x,,
7,6,65,,2,3h[8:2],,5,6,7,
8h[8:4]bx/4h[8:2],,,,2h[8:2],,7,6,5h[8:2]/1,,1,2-5[8:2]/6-1[8:2],,,,,
7pp4[8:4]/3h[8:6],,,,,,,,
1,,3,3h[8:2]/4,,7,8,1,
{24}2bx/3h[8:2],,4x,5x,6x,7x,8x,1x,2x,3x,4x,5x,{8}6x/1h[8:2],,6,5,4h[8:2]/8,,1,25,
{16}3,7,2,6,3<7[8:2],7,{8}2,6x>2[8:2]/3x,,8-4[8:1],,8x,,
2,3,34,,7,6h[8:2],,4,3,2,
{24}8bx/7h[8:2],,6x,5x,4x,3x,2x,1x,8x,7x,6x,5x,{8}4x/8h[8:2],,2,3,4h[8:2]/1,,8,7-4-6[8:2]/3-8-2[8:2],,,,,
2xqq5[8:4]/6h[8:6]x,,,,,,,,
B7h[8:6]/Ch[8:6]/B3h[8:6],,,,,,,,
{32}1b,2,3,4,,,8b,7,6,5,,,1b,2,3,4,{16}6,6,2,2,
{32}8b,7,6,5,,,1b,2,3,4,,,8b,7,6,5,{16}3,3,7,7,
B2h[8:2]/Ch[8:2],,,,,,,,
{32}8b,7,6,5,,,1b,2,3,4,,,8b,7,6,5,{16}3,3,7,7,
{32}1b,2,3,4,,,8b,7,6,5,,,1b,2,3,4,{16}6,6,2,2,
B7h[8:2]/Ch[8:2],,,,,,,,
{32}4b,3,2,1,,,5b,6,7,8,,,4b,3,2,1,{16}7,7,3,3,
{32}5b,6,7,8,,,4b,3,2,1,,,5b,6,7,8,{16}2,2,6,6,
B3h[8:2]/Ch[8:2],,,,,,,,
{16}5x,4,5,4,6,3,6,3,
{24}7x,6,5,4,3,2,
1/5x,4,3,2,1,8,7-1-4-6v3[8:6],,,,,,
{8},,,,,,,,,,,,,,
{8}15,2,2<7[16:3]/4,,23,,4,,
{8}64,5,7>2[16:3]/5,,76,,5,,
{8}48,3,1<6[16:3]/3,,12,,3,,
{8}51,6,8v3[16:3]/6,,87,,6,,
{8}46,3,2-5[16:2]/5,5p1[8:1],6,,7,,
{8}82,7,6-1[16:2]/1,1v4[8:1],2,,3,,
{8}46,3,1-5[16:2]/5,5-2[8:1],6,,
7-4[8:1],,3-8[8:1],,5-2[8:1],,1-6[8:1],,3,,
3<6[16:3],,2,1-5[8:1],,,
7>2[16:3],,6,5h[8:1],,,{24}1x/4,83,72,61,,,{24}2x/5x,36,47,58,,,
{8}3>8[16:3],,6,7-4[8:1],,,
1<6[16:3],,3,4h[8:1],,,{24}8x/5,16,27,38,,,{24}7xqq4[8:6]b/4xqq1[8:6]b,63,52,41,,,
{8},,,,,,,,3,,3,,
65,,8/4h[8:2],,
7,7,3,3,4,4h[8:1],1,2,
3qq4pp4[8:14],,,,,,,,C
,,,,,,,,,,,,,,,,3h[8:8]/4,,,,,,,,,,,,
6h[8:4]/4,,,,,,5h[8:8],,,,,,,,,,4,,,,
3>5[8:13],,,,,,,,,,,,,,,C,,,
E
E
