&title=遠い世界の時と空
&artist=Qrispy Joybox
&first=0
&lv_5=14
&des_5=软糖酱
&inote_5=
(184){4},{8},,,,6,5,
4,3,4,5,6,5,4,3,
4,5,6,5,4,3,4,5,
{4}7/6,1/8,2/3,{8}3,4,
5,6,5,4,3,4,5,6,
5,4,{16}5,4,{8}5,3,2,1,8,
2,3,4,5,6,7,3,4,
5,6,5,4,3,4,5,6,
{16}4,5,{8}4,3,4,5,6,5,4,
{4}4/3,5/4,5/6,{8}6,5,
4,3,4,5,{4}6/5,4/5,
3/4,{8}3,4,5,6,7,8,
{4}2/1,4/3,5/6,{8}6,5,
4,3,4,5,{4}6/4,5/7,
{16}1,8,{8}1,2,3,4,5,{4}6h[4:3],
8b,1b,2b,{8}3,4,
5,6,{4}4,{8}3,4,5,6,
{4}4,{8}5,3,6,4,5pp4[2:1],3,
,,,,,,3,5,
4,6,4,5,{2}3h[4:3],
{8},,6,4,5,3,4,5,
{4}6,4,{16}6,5,{8}6,4,3,
5,4,5,6,{4}5,4,
{16}5,,,3,{4}4h[4:3],7,8,
1,{8},,,,5,6,
5,6,5,6h[8:3],{2}5h[2:1],
{16},,,,6,5,{8}6,4,3,5,4,
{4}6h[4:1],4h[4:1],8b,{8}7,5h[8:1],
8,4h[8:1],7,5h[8:1],{2}8p6[4:1],
{4}2,{16}4,5,{8}3,6,4,5,3,
2,4h[8:1],1,5h[8:1],2,4h[8:1],{4}1-4[8:1],
1/6-3[8:1],6/2-7[8:1],2/5-8[8:1],5/3-6[8:1],
3/7-4[8:1],7/8-3[8:1],8/6-1[8:1],6/2,
{8}2/8,3,4/8,5,6/8,7,{4}1/8-3[8:1],
8/2-5[8:1],2/7-4[8:1],7/3-8[8:1],3/5,
{16}1/5,2,{8}3,{4}6-1[8:1],6/3-8[8:1],3/5,
{12}1/5,6,7,4/8,3,2,5/1,6,7,4b/8,,,{4}8,
8,{12}8/4,7,6,1/5,2,3,
8/4,7,6,1/5,4,3,6/2,1,8,7/3,6,5,
1b/4,2,3,4/8,5,6,7/3,8,1,2/6b,,,{4}6,
{16}6,,,6,{4}5h[4:1],7h[4:1],
6h[4:1],8b,{16},,7,6,7>4[4:3],6,7,6,
{4}7,,,2,
{12},,,,,8b,,,,,,,,(180)5/3,
{24},2,,,8/1,,,7,,,{12}4/6,{24},5,,,4/3,,,2,
,,{12}1/8,{24},7,{48},,,,5,,,6,,,{24}5,,,{12}4/7,{24},8,,,1/2,,,3,
,,{12}4/5,{24},6,,,{12}8b/7b,,,2b/1b,{48},,,,,,,,3,,,4,,,{24}3,
,,{12}2/5,{24},1,,,8/7,,,6,,,{12}5/7,{24},4,,,3/5,,,2,
,,{12}1/3,{24},8,,,7/1,,,6,{48},,,,1,,,2,,,{24}8,{48},7,,,2,,,3,,,{24}7,
{48},6,,,3,,,4,,,{24}6,{48},5,,,{24}4/3,,,2/5,,,{12}6/1,{24},8/7,,,6/1,,,2/5,
{48},,,,3,,,4,,,{24}3,,,2,,,1,,,{12}8,{24},7,{48},,,,6,,,5,,,{24}6,
,,{12}7,{24},8,,,1,,,2,{48},,,,3,,,4,,,{24}2,,,1,,,7,
,,{12}2-4[8:1],{24},8,,,{12}2/1-5[8:1],,,1/8-6[8:1],,,{6}3/8,
{12},2/5b,1,8,4,3,2,5,4,3,6,5,
4,7,6,5,8,7,6,1,8,7,2,1,
8,3,2,1,{3}8b,{48},,,,,,,,1-5[8:1],,,8,,,{24}1,
{48},8,,,{12}1,{24},7,,,4/6,,,5,,,{12}4/3,{24},2,,,1/8,,,7,
,,{12}6/5,{24},4,{48},,,,7,,,8,,,{24}1,,,{12}3,{24},4/2,,,1,,,8/7,
,,{12}6-8[8:1],,,6/4-2[8:1],,,4/8,{48},,,,,,,,8-4[8:1],,,1,,,{24}8,
{48},1,,,{12}8,{24},2,,,5/3,,,4,,,{12}6/5,{24},7,,,1/8,,,2,
,,{12}3/4,{24},5,{48},,,,2,,,1,,,{24}8,,,{12}6,{24},5/7,,,8,,,2/1,
,,{12}3,{24},5/4,{48},,,,1,,,2,,,{24}3,,,{12}1-5[8:1],,,{6}2b/1,
{48},,,,3,,,4,,,{24}2,,,1,,,1,,,{12}8,{24},7,{48},,,,6,,,5,,,{24}7,
,,{12}8,{24},8,,,1,,,2,{48},,,,3,,,4,,,{24}1,,,8,,,8,
,,{12}2,{24},1,,,{12}2,3,4,2,3,4,2,3,
4,8b/5,7,6,5,4,3,2,1,8,7/2b,3,
4,5,6,7,8,1,2,3/7b,6,5,8b/4,1,
2,7b/3,6,5,{48}8b/4,,,7,,,{24}6,{48},5,,,1b,,,8,,,{24}7,{48},6,,,2b,,,1,,,{24}8,
{48},7,,,{12}3h[4:3],,,,,,,,,{6}4,
{12},,,,,,,4/6h[4:3],,,,,,,,,{3}5,
{12},,,,,5/3h[4:3],
,,,,,,,,{6}6,
{12},,,,,,,4/6h[24:73],,,,,,,,,{3}3h[24:55],
E
