&title=Pon-Pon-Pompoko Dai-Sen-Saw!
&artist=黒魔
&first=0
&des=TAMAちゃん
&lv_5=14
&inote_1=
&inote_5=(183)
{1},
{8}7,,7,,7,4/5,3bx/6bx,,
{16}34,,2,4,2,,2,,4,,3,,5,,45,,
{16}65,,7,5,7,,7,,5,,6,,4,,45,,
{16}34,,2,4,2,,3,,
{16}65,,7,5,7,,65,,
{4}6-3[8:1],2-7[8:1]/6,2/6-2[8:1],6/Cf,
{16}4,,4,,5,4,,36,,,3h[8:1],,4h[8:1],,5h[8:1],,
{16}6,,7,,4x<2[4:1],4x,,7h[3:1],,,,,,,
{16}4,5,3,6,4,5,3,6,4,5,
{8}3h[8:1],7h[8:1],1h[8:1],4,
{16}1bx/3bx,,,5bx/7bx,,,2bx/8bx,,,,1x,1x,2x/8x,,2x/8x,,
{16}4x,,4,,5,4,,36,,,6h[8:1],,5h[8:1],,4h[8:1],,
{16}3,,2,,5x>7[4:1],5x,,1h[3:1],,,,,,,
{16}2,5,8,7,1,6,8,7,1,6,
{8}1h[8:1],5h[8:1],3h[8:1],7,
{16}7b/5b,,,3b/5b,,,8b/6b>3[8:1],,,,,,,,
{16}2,4,2,,2,5,2,,2,6,2,,2,2h[16:4],7,6,5,4,1x,,73,,5q6[4:1],7,,5/7h[3:1],,,,,,,
{16}7,5,7,,7,4,7,,7,3,7,,7,7h[16:4],2,3,4,5,8x,,62,,4p3[4:1],2,,4/2h[3:1],,,,,,,,,
{16}2x/7x,,3,4,2,,3,4,1h[8:1],,8h[8:1],,7h[8:1],,6h[8:1],,
{8}5-2[8:1],5,1-6[8:1],1,
{8}3-7[8:1]*-1[8:1],,3x,,
{16}7-4[8:1],,4,4,7x,,2,,
{16}8-4[8:1],,4,4,8x,,3,,
{16}1-5[8:1],,5,5,1x,,4,,
{24}4x,5x,6x,7x,8x,1x,2x,3x,4x,5x,6x,7x,
{4}8x-4[8:14],,,,,,,,2-6[8:12],,,,,,,7x,
{8}4,5,46,3,4,5,46,3,4,5,63,5,4,56,46,
{16}4,5,
{16}3,5,3,5,3,5,3,5,
{16}2,6,2,6,1,6,1,6,
{16}8,5,8,5,8,4,8,4,
{8}8-4[8:1],1,2/8b/Cf,,
{8}1-5[12:1],,8-6[12:1],,
{16}2-4[12:1],,,5x,,,6,,
{12},,6/4,5x,5xpp5[6:1],5x,5x>1[6:1],,,,,,
{8}8-4[12:1],,1-3[12:1],,
{16}7-5[12:1],,,4x,,,3,,,
{16}5h[8:1],,4,5h[8:1],,3,5h[8:1],,2,1,8,7,6,5,4,
{8}3-8[12:1]*-6[12:1],,3x-7[12:1],,
{16}6-3[12:1],,,8x,,,2,,
{12},,7x,7x^4^7[8:3]/3x^8^3[8:3],7x/3x,7x/3x,7x/3x,,,,,,
{12}7h[6:1],,8,16,,,2h[6:1],,1,83,,,
{12}7,,2,37,,7,1>4[8:1]/6,,,C/1x,,,
{16}8-4[12:1],,,,1-3[12:1],,,,7-5[12:1],,,4x,,,4^3^2^1^8^7^6^5^4[3:1],,,,,,,,,,
{12}7x,3,7,26,,,
{8}1-5[12:1],1,6-1[12:1],,
{16}2-5[12:1],,,6,,,7,,,
{16}8h[8:1],,1,8h[8:1],,2,8h[8:1],,3,4,5,6,7,8,1,
{16}2-5[12:1]*-7[12:1],,,,2x-6[12:1],,,,
{16}7-4[12:1],,,3-8[12:1],,,5,,
{12},,6x,2x,2x,2x,8x,5x,6x,1x,4x,3x,
{12}1x-6[8:1],,2,1,,,
{12}1-4[8:1]/2,,2,1,,,
{12}2h[6:1],,1,2h[6:1],,8,
{12}1-5b[12:1],8,2h[12:1],1b,,,
{8}4xq5[8:3]/5x,,,{16}5,6,{8}7,7-3[8:1],,
{8}5z1[2:1],,,7,7h[8:1],{16},,8b,,8b,,,,
{8}2p1[8:3],,,{16}1,8,{8}7,7-3b[8:1],,,2,2,4h[8:1],8b,3h[8:1],8b,5h[8:1],8b,
{16}3,,3,4,2,,3,4,{8}2-5[8:1],2,6-1[8:1],6,
{8}3-8[8:1],3,7-4[8:1],7,1,{16}1-5[8:1],2,3h[8:1],,1x,,
{16}2-5[8:1],,5,5,2bx,,7,,
{16}1-5[8:1],,5,5,1bx,,6,,
{16}8-4[8:1],,4,4,8bx,,5,,
{24}5bx,6x,7x,8x,1x,2x,3x,4x,5x,6x,7x,8x,
{8}4x,4x,5/3,6x,6x,6,1x/5x,{16}1x/5x,2x/6x,
{4}3x-8[8:1]/7x-2[8:1],3x-5[8:1]/7x-5[8:1],3x>6[8:2]/7x,Cf,
{1}5bx-1[2:7],,,,
{8}6,5,4,3,6,4,3,2,
{8}6,5,4,3,6,4,3,2,
{16}6,5,4,3,6,5,4,3,
{8}6,5,4,3,
{8}64,5,4,3,25,4,3,2,C/1,,,,
{8}1w5[12:1],,{64}1b,B1f,Cf,B5f,,,,,,,,,,,,,
{16}4h,6,4h,6,3h,7,3h,7,2h,8,2h,8,1h,1,1h,1,
{16}2xh,8,1h,1,2xh,8,1h,1,2xh,8,1h,1,1xh,1,1h,1,
{16}1xh[8:1],,8,2,7xb,,7xb,,5,6,4,7,5xb,,5xb,,
{16}2,1,4,7,3bx,8,4xb,6,1xb-5[8:1],8,2xb,7,1xb,,,,
{8}3qq8[8:3],3,{16}4,4,,5,,,6,,7,,8,,
{8}1qq6[8:3],1,{16}2,2,,3<6[8:1]*>1[8:1],,,,,,,,,
{16}7,8,6,1,7,8,6,1,{8}7-3[8:1],7,1,1,
{16}2x/8x,,6,5x/7x,,4,3x-8b[8:1]/5x,,,,,,6bx,,6bx,,
{16}1h,7,1h,7,1h,7,1h,7,2h,6,2h,6,3h,5,3h,5,
{16}4xh,4,4h,4,4xh,4,4h,4,3xh,5,4h,4,3xh,5,4h,4,
{16}4hx[8:1],,5,3,8bx,,8bx,,2,1,3,8,2bx,,2bx,,
{16}4,6,2,8,5xb,7,3xb,1,2xb-5[8:1],8,3xb,6,2xb,,,,
{8}6pp1[8:3],6,{16}5,5,,4,,,3,,2,,1,,
{8}8pp3[8:3],8,{16}7,7,,6,,,5,,4,,3,,
{16}6,5,7,4,6,5,7,4,6,3,7,2,8,1,6,2,
{16}5x/3x,,4,3x/5x,,6,5xh[8:1]/7xh[8:1],,,,5,7,4,6,3,5,
{16}2hx[8:1],,,5hx[8:1]/3x,,,
{16}3hx[8:1]/6,,,7x-3b[12:1]/4x,,,7bx,,,,
{16}2,4,2,6,5,6,3,4,3>7[4:1],7,5,6,3bx,,,,
{16}5hx[8:1],,,2hx[8:1]/6,,,6hx[8:1]/3x,,,4x-8b[12:1],,,4bx,,,,
{16}7,5,6,2,4,3,7,5,6,2,4,3,4-8-4[4:1],,,,
{8}4/6,,7,,8-4b[8:1]/4,3,8<2[2:1]/2>8[2:1],,
{8}A2/A8/A1f/D2/D1/E2/E1/B1,,,,,,
{16}1,8,1,8,2,7,2,7,3,6,4,8,3,7,2,6,1,5,8,4,
{4}8w4b[12:1],8b/B8f/Cf/B4f,
&inote_7=(183)
{1},
{8}7,,7,,7,4,3bx/6bx,,
{16}34,,2,4,2,,2,,4,,24,,45,,45,,
{16}65,,7,5,7,,7,,5,,75,,65,,45,,
{16}34,,2,4,2,,3,,
{16}65,,7,5,7,,65,,
{4}6-3[8:1],2-7[8:1]/6,2/6-2[8:1],6/Cf,
{16}4,,4,,5,4,,36,,,3h[8:1],,4h[8:1],,5h[8:1],,
{16}6,,5,,5<2[4:1]/7,5,,7h[3:1],,,,,,,
{16}4,5,3,6,4,5,3,6,4,5,
{8}3h[8:1],5h[8:1],7h[8:1],1,
{16}1bx/3bx,,,5bx/7bx,,,2bx/8bx,,,1x,1x,,2x/8x,,3x/7x,,
{16}4x,,4,,5,4,,36,,,6h[8:1],,5h[8:1],,4h[8:1],,
{16}3,,4,,4>7[4:1]/2,4,,1h[3:1],,,,,,,
{16}2,7,1,2,3,4,1,8,7,6,
{8}1h[8:1],3h[8:1],5h[8:1],7,
{16}7b/1b,,,3b/5b,,,8b/6b>3[8:1],,,,,,,,
{16}2,4,2,,2,5,2,,2,6,2,,2,7,1,2,3,4,5x,,78,,5q6[4:1],6,,5/7h[3:1],,,,,,,
{16}7,5,7,,7,4,7,,7,3,7,,7,2,8,7,6,5,4x,,21,,4p3[4:1],3,,4/2h[3:1],,,,,,,,,
{16}2x/7x,,3,4,2,,3,4,1h[8:1],,8h[8:1],,7h[8:1],,6h[8:1],,
{8}5-2[8:1],5,1-6[8:1],1,
{8}3v8[8:1],2,3x,,
{16}7-4[8:1],,4,4,7b,,2,,
{16}8-4[8:1],,4,4,8b,,3,,
{16}1-5[8:1],,5,5,1b,,4,,
{32}4x,5,6,7,8,1,2,3,4b-8[4:15]/8x,,,,,,,,
{4}B8,B7,B6,B5,B4,B3,B2,B1,B7,B6,B5,B4,B3,B2,B1,C,
{8}6,5,46,3,6,5,46,3,6,5,46,3,6,56,46,
{16}3,6,2,6,4,6,2,6,4,6,1,6,4,6,1,6,4,6,8,6,4,6,8,6,4,6,
{8}8-4[8:1],1,2/8b/Cf,,
{8}1-5[12:1],,8-6[12:1],,
{16}2-4[12:1],,,2,,,5,,
{12},,5,5x/6x,5xpp5[6:1]/6x,5x/6x,6x/5x>1[6:1],,,,,,
{8}8-4[12:1],,1-3[12:1],,
{16}7-5[12:1],,,7,,,4,,,
{16}5h[8:1],,4,5h[8:1],,3,5h[8:1],,2,1,8,7,6,5,4,
{8}3-8[12:1],,8x/3x,,
{16}7-2[12:1],,,3-6[12:1],,,3,,
{12},,8,8x<5<8[3:1]/4x>1>4[3:1],8x/4x,8x/4x,8x/4x,,,,,,
{12}7h[6:1],,8,16,,,2h[6:1],,1,83,,,
{12}7,,2,37,,7,1>4[8:1]/6,,,C,,,
{16}8-4[12:1],,,,1-3[12:1],,,,7-5[12:1],,,7,,,4^3^2^1^8^7^6^5^4[3:1],,,,,,,,,,
{12}7x,3,7,26,,,
{8}1-5[12:1],1,5,,
{16}6-1[12:1],,,2-5[12:1],,,2,,,
{16}8h[8:1],,1,8h[8:1],,2,8h[8:1],,3,4,5,6,7,8,1,
{16}2-5[12:1],,,,2x/5x,,,,
{16}7-4[12:1],,,3-8[12:1],,,5-1[12:1],,
{12},,5x,2x,2x,2x,3x/8x,7x/3x,6x/3x,1x/2x,8x/2x,7x/2x,
{12}1x^6[8:1]/2x,,2,1,,,
{12}1-6[8:1]/2,,2,1,,,
{12}2-6[8:1],,2,1-5[8:1],,1,
{8}8w4[8:1],,8b,,
{8}4xq5[8:3]/5x,,,{16}5,6,{8}7,7-3[8:1],,
{8}5s1[2:1],,,7,7h[8:1],{16}D7,A6,D6,A5,D5,A4,D4,,
{8}2p1[8:3],,,{16}1,8,{8}7,7-3[8:1],,8x,2h[8:1],8x,6h[8:1],8b,3h[8:1],8b,5h[8:1],8b,
{16}3,,3,4,2,,3,4,{8}2-5[8:1],2,6-1[8:1],6,
{8}3v8[8:1],2,7-4[8:1],6,1-5[8:1],{8}2,1x/3x,,
{16}2v5[8:1],,6,6,2b,,6x,,
{16}1v4[8:1],,5,5,1b,,5x,,
{16}8v3[8:1],,4,4,8b,,4x,,
{24}7bx,6x,5x,4x,3x,2x,1x,8x,7x,6x,5x,4x,
{8}3x/7x,3x/7x,3,6x/2x,6x/2x,6,1x/5x,{16}1x/5x,2x/6x,
{4}3x-8[8:1]/7x-4[8:1],3x-6[8:1]/7x-2[8:1],3x>5[8:2]/7x,3x/7x,
{1}1bx-5[2:7],,,,
{8}6h[4:1],5,4,3,6h[4:1]/5,4,3,2,
{8}6h[4:1],5,4,3,5/6h[4:1],5,4,3,
{16}6,5,4,3,6,5,4,3,
{8}6h[8:1],5h[8:1],4h[8:1],3,
{8}64,5,4,3,35,4,3,2,C,,,,
{8}5w1[8:1],,{64}5b,B5f,C,B1,,,,,,,,,,,,,
{16}4,6,4,6,3,7,3,7,2,8,2,8,1,1,1,1,
{16}2,8,1,1,2,8,1,1,2,8,1,1,1,1,1,1,
{16}1xh[8:1],,8,2,7,5,6,4,6,5,7,4,6,5,8,3,
{16}1,2,8,3,7,4,6,5,8-4[8:1],1,7,2,8b,,,,
{8}3qq8[8:3],3,{16}4,4,,5,,,6,,7,,8,,
{8}1qq6[8:3],1,{16}2,2,,3v5[8:1]*v1[8:1],,,,,,,,,
{16}7,8,6,1,7,8,6,1,{8}7-3[8:1],7,1,1,
{16}2x/8x,,6,5x/7x,,4,3x-8b[8:1]/5x,,,,,,5,,6,,
{16}7,1,7,1,7,1,7,1,6,2,6,2,5,3,5,3,
{16}4h,4h,4h,4h,4h,4h,4h,4h,5h,3h,4h,4h,5h,3h,4h,4h,
{16}4hx[8:1],,3,5,2,8,1,7,8,7,1,6,8,7,1,6,
{16}3,4,2,5,1,6,8,7,1-5[8:1],8,3,6,1b,,,,
{8}6pp1[8:3],6,{16}5,5,,4,,,3,,2,,1,,
{8}8pp3[8:3],8,{16}7,7,,6,,,7-4[12:1],,6,,7,,
{16}2,3,4x,,6,5,4x/7x,,8,7,6x,,2,1,2,1,
{16}3x/8x,,4,3x/5x,,6,5xh[8:1]/7xh[8:1],,,,5,7,4,6,3,5,
{16}2hx[8:1],,,6hx[8:1]/B2/B1,,,
{16}3hx[8:1]/B7/B8,,,7x-3b[12:1],,,7bx,,,,
{16}6,5,6,3,4,3,6,5,6<2[4:1],2,4,3,6bx,,,,
{16}4hx[8:1],,,6hx[8:1]/C,,,3hx[8:1]/C,,,5x-1b[12:1],,,5bx,,,,
{16}2,4,3,7,5,6,2,4,3,7,5,6,5-1-5[4:1],,,,
{8}5/3,,3,,1-5b[8:1]/3,2,1x>7[2:1]/7<1[2:1],,
{8}A7f/A1f/A8f/D8f/D1f/E8f/E1f/B8f,,,,,,
{16}4,5,4,5,3,6,2,5,1,5,2,6,3,7,4,8,5v2[0.6557##0.1639],1-6[0.5738##0.1639],4h[4:1],8h[16:3],
{4},1b/5b/Cf/B1/B2/B3/B4/B5/B6/B7/B8,
