&title=Libertas
&artist=Zekk
&first=0
&lv_5=14
&des=Absurd&Parody
&inote_5=
(160){4},,,,{1}4h[1:1]/5<4[2:5],
,5s1b[2:1],
{8}8b,{16}5,6,4,5V73[4:1],,7/2-8b[8:1],{2},{8}4/7,
{16}6,5,{8},5,{2}6v1b[8:1]/5v2[8:1],
{8}2/5,{16}3,4,{8},4,3/4h[4:1],{24}2,1,8,7,6,5,4,{12}3,
{8}5bv2[8:1],{16}4,5h[4:1],{4},{8}1v6b[8:1],{16}8,1h[4:1],{4},7bV14[4:1],
6b,5b-1b[8:1],5b,
{1}8-4b[8:1]/4-2-6-1-7[2:1],
1-5b[8:1]/5-7-4-8-2[2:1],
8-2-6-3-5[2:1]/4-8b[8:1],
5-1b[8:1]/1-3-8-4-6[2:1],
{8}2-4[8:1],1,8,7-4[8:1],,2,3-7[8:1],7,
6,5-1[8:1],,1,{2}2-5[8:1]*-6[8:1],
{8}7/5,6/4,5/3,2/4,{16}1,3,1,4,1,5,1,6,
{32}1,2,3,4,5,6,7,8,1,2,3,4,5,6,7,8,{2}1-5b[8:1],
{32}8b/1b,2/7,3/6,4/5,{16},3,{8}4,5/2,{16}8/7V51[4:1],{8},{16}5,{8}5,3,
2V48[4:1],{16}1,1,2,{8},{16}5,{8},6,7-3[8:1]/1v3[8:1],6/2,
{2}1b/7bv6-4[4:1],{8}1,{16}3,4/2,,6,{8}7/5,
{16}1/8,{8},{16}6/5,{8},3/4,{12}8/2,1,1,6/8w4[8:1],7,7,
{16}8,{8},{16}6,{8}5,7/4,{16}1/2V48b[4:1],{8},{16}4,{8}4,6,
7V51b[4:1],{16}5,5,7,{8},{16}4,{8},3/1,2/8-4b[8:1],1/7,
{4}8/6<3[4:5],3h[4:1],,4h[4:1],
,5,6<3b[8:1],3/6b,
4-8[8:1],4,{8}7/1,{16}2,4,{8}3,{16}7,1,
{8}8-4[8:1],2-6[8:1],8,2,{16}8b-4[8:1],4,2,6,{4}8,
{16}3,5,3,7,5,6,1,8,{8}2h[8:1],{16}3,4,1/5,2/6,3/7,4/8,
{4}1-6[8:1]/5-2b[8:1],1b/5b,{16}1b/5,{8},{16}6b/2,{8},3b/7,
4/5qq7[4:1],{4},{16}8,1,{8}2-5b[8:1],6-8[8:1],2,6,
{2}4pp2[4:1],{16}8-4[8:1],7,{8}6-2b[8:1],8,6,
{12}5,4,3,1,8,7,4,3,2,8,7,6,
{24}1,5,1,5,1,5,{32}1,8,7,6,5,4,3,2,{4}5bpp2[1:2]/1b-5[8:1],5b/1bpp6[4:7],
{8},,,,,,,,,,,,,,,,,E3,
,E5/B4,,E7/B7/B6,,1>5[4:1],
,5<1b[4:1],{2},{4}5-1b[8:1],
{1}1b/5x-3-7-1z5[2:3],
{2},4h[4:3],
{1}6pp3b[2:1],
{4}3,2,1-5b[8:1],1b,
{32}7/4h[4:3],8,{16}1>7[2:1],{8},,,,,,,{32}2/5h[4:3],
1,{16}8<2b[2:1],{8},,,,,,,{32}1b/4h[4:3],
2,{16}3<1[2:1],{8},,,,,,,{32}8b/5h[4:3],
7,{16}6>8b[2:1],{8},,,,,,,1-4[8:1],
8,7,6-1[8:1],5,4,3-7[8:1],2,
1,8-4[8:1],7,6,{2}5w1[8:1],
{8}2/4,5/3,4/6,5/7,{16}8,6,7,5,6,4,5,3,
{32}4,5,6,7,8,1,2,3,4,5,6,7,8,1,2,3,{8}4/8w4b[8:1],2/6,{4}8b,
{32}6/1-6b[8:1],2,3,4,{8},{16}1/4>7[16:3],3,{8}2h[16:3],{16}4,{8},{16}4,,2,{8}1,
{32}3/8-3b[8:1],7,6,5,{8},{16}8/5<2[16:3],6,{8}7h[16:3],{16}5,{8},{16}5,,7,{8}8,
{32}1/6-1[8:1],5,4,3,{8},{16}6/2,3,{8}4,{16}1,2,,2,{4}1h[8:1],
{32}8/3-8b[8:1],4,5,6,{8},{16}3/7,6,{8}5,{24}1,8,1,7,{48},{16}2,6,3,5,4,
{32}3/8-3[8:1],7,6,5,{8},{16}8/5>8b[16:3],6,{8}7h[16:3],{16}5,{8},{16}5,,7,{8}8,
{32}6/1-6[8:1],2,3,4,{8},{16}1/4<1b[16:3],3,{8}2h[16:3],{16}4,{8},{16}4,{8},{16}2,1,
{8}3,{16}7,8,{8}6,7/4,{16}6,5,{8}6,{32}7,8,1,2,3,4,{16},{8}5-1[8:1],
{16}6,4,{8}5,3,{16}8,1,7,2,{8}8-4b[8:1],2,
{4}8/3-8b[8:1]*pp7[8:5],3b,8-3b[8:1],8,
{16}6/4,{8},{16}7,{8}8,4/6,{4}3h[8:1]/5h[8:1],1h[8:1]/2h[8:1],
7pp3[8:5]*-4b[8:1],7,4-7b[8:1],4,
8h[8:1]/2h[8:1],7h[8:1]/1h[8:1],{16}6/5,{8},{16}3/4,{8},1/8,
{1}4/5qq8[4:3],
{32}3,4,{16}5-1[8:1]*-8b[8:1],{8},,,,,{12}8/1,8/1,8/1,
{8}4/2,5/3,4/6,7/5,{16}8,6,8,5,8,4,8,3,
{2}8z4[8:5]*z4[8:5],{4}8-4b[8:1],8b,
{8}5x/4x,5x/4x,4x/5x,{16}5,4,1,2,8,1,1,2,6,4,
{8}8b,{16}5,6,{8}8b,{16}6,4,{8}8b,7/1,6/2,3/5,
4,{16}6,6,5,7,,3,{8}3,{16}4,2,5,3,6,4,
{24}7,8,1,2,3,4,6,7,8,1,2,3,{16}6b/4b,{8},{16}5b/2b,{8},8b/4b,
5/4,{16}4,5,3,6,2,7,{24}1,8,1,8,1,8,1,8,1,8,1,8,
2,3,4,5,6,7,2,3,4,5,6,7,{8}2/8,{16}3,4,{8}3,{16}7,8,
{8}7,{16}3,4,2,8,5,6,{32}1,2,3,4,5,6,7,8,1,8,7,6,5,4,3,2,
{12}1/6b-8[8:1],6b,6b,4b-2[8:1],4b,4b,5b-1b[8:1],5b,5b,Cf,{6},{16}1/8,
{8},{16}5,{8}7<4[8:1],8,{32}7/8-4[8:1],1,2,3,{8},{4}8,
{8}3/5,{16}2,4,{8}2v3[8:1]/8v7[8:1],1,{4}2v5[8:1]/8v5[8:1],8/2,
{8}5/4,{16}7,8,6,5,{8}7,{16}2,1,3,4,{8}2,{32}1,8/2,7/3,6/4,
{8}5b,{16}5,5,{8}1,{16}4,4,8b,{8},{16}2b,{8},6b,
{16}4/5pp2[8:3],{8},{16}4,{8},{16}4,3,2,{8},{16}1,{8},1,
{16}8b/7b,{8},{16}7b/8b,{8},5b/6b,{16},3b/4b,{8},2b/1b-6b[8:1]*pp4[4:3],{24}1,1,1,
{1}1,
{8}5b-1[8:1],6b,7b-3[8:1],8b,{2}1bw5b[8:1],
{8}2/5,{16}3,4,{8},3/4,{2}4v7[8:1]/3v8b[8:1],
{8}7/4,{16}6,5,{8},6/5,6/5,{32}7,8,1,2,3,4,5,6,{8}7,
4v7[8:1],{16}5,4h[4:1],{4},{8}8v3b[8:1],{16}1,8h[4:1],{4},2bV85[4:1],
3b,4b-8b[8:1],4b/Cf,
E
