&title=もういちど ルミナス
&artist=Pastel*Palettes
&first=0
&des=color black
&lv_1=13
&lv_5=13
&inote_1=(169)
{1},,
{8}3,,3,,{16}5,4,5,4,5,4,5,4,
7h[8:4],,,,,,,,{8}2-5[8:1],,7,,6,6,,5-8[8:1],,4,4,3,
3,,2/5,,3/6,,4/7,,
8<4[8:2],,4>8[8:2],,8V64[8:2],,4V28[8:2],,
8-4[8:2],,,,2,2,3,3,
4V28[8:2],,8V64[8:2],,4>8[8:2],,8<4[8:2],,
4-8[8:2],,,6b,,,2,,
3,4,7,8h[8:2],3,4,5,,
6bxqq3b[8:3]/7h[8:8],,,,,,1,1bx-4b[8:1],
,,7,,1,,3,,
5bqq8b[8:3]/4h[8:8],,,,,,7,7b-3b[8:1],
,,,,2/6,2/6,3/7,3/7,
8bpp3b[8:3]/4h[8:5],,,,,,5h[8:4],6
h[8:4],
,,,,,,4,5,
3/6,3/6,2/7,2/7,{16}1,8,1,8,1,8,1,8,
1-5[8:1],,,,1b>8[8:3]/Cf,,,,,,,,{8},,
,,2,,2,,2,,3qq8[8:4]
,,7,,7,,7qq4[8:4],,
2,,2,,2>5[8:3],,8,,
8,,4x,,8x<4qq4[8:5],,4xpp4[8:3],,
,,,,,,4,,
4,,4<7[8:3],,2,,2,,
2,,6pp4[8:4],,2-5[8:2],,,,
,,,,6,,6,,
6<1[8:3],,,,4-1[8:2],,5,5,
,,2,,7>2[8:2],,2v4[8:2],,
,,,,6,,6,5,
6,,4/5,,3/6,,2/7h[8:8],,
1h[8:6],,,,,,,,
,,8qq6<7qq5<6-2[8:6],,3,,3,,
2qq7[8:4],,,,3,,3,,
6/3,3,5/2,2,4/1,1,3/8,8,
7b-3[8:10],,{1},{8},,,,2-5[8:3],,
,,,,7-4[8:3],,,,
1-5[8:3],,,,8b-4b[8:1],,8b,,
3,3,2/6,2,1/7,1,6/2,6,
3/7,7,4/8,8,1-5[8:1],,8h[8:2],,
2>4[8:1],,7h[8:2],,3<5[8:1],,6h[8:2],,
4>1[8:1],,5h[8:2],,,,,,{16}
5x,6x,7x,,{8}4hx[8:4]/8hx[8:4],,,,,Cf/B2/B3/B6/B7,
,,,,2-5[8:1],2,7-4[8:1],7,
1-5[8:1],,8-4[8:1],,4>8[8:2],,8<5-1[8:3],,
3,,2qq6[8:3],,7,7,7,,
3,2/6,7,8/3,2,1/5,6,4qq1[8:3]/7h[8:5],
,,,,,,8,2,
1-3[8:1],,1pp4[8:3],5,,6,6,7,
7,,1/2,3/8,,6,5,,
{16}7,6,5,4,2,4,3,7,5,6,5,,3/4,,2<6[8:3]/5,,
{8},,,4,3,,2/1-5[8:1],,
7-3[8:1]/1,,2-6[8:1]/7,,8-4[8:1]/2,,3-7[8:1]/8,,
5-1[8:1]/3,,4qq5[8:2]/5,,5<4[8:3],,7x,,
,,6x/5x,,4x/6x,,3x/6x-1[8:4],,
,,2,,2,,2h[8:2],,
,,3x/4x,,5x/3x,,6x/3x-8[8:4],,
,,7,,7,,7h[8:2],,
,,4h[8:2],,5h[8:2],,,,
4,4,5,5,3/6,3/6,2/7,2/7,
{16}1,8,1,8,1,8,1,8,1-5[8:1],,,,1b/Cf,,,,
7,,7,,6,,6,,5,,5,,4,,4,,
5/7,,6,,4,,5/3,,,,3h[8:2]/5,,6,,7,,
8,,2,,1,,2,,8-5[8:1],,3,,8-3[8:1],,,,
8<5[8:1],,,,8>3[8:1],,,,8-4[8:1],,,,8,,,,
7/3,,6,,6,,6,,4,,3,,2,,1,,
1-4[8:1],,,,1-6[8:1],,,,1>4[8:1],,,,1<6[8:1],,,,
1,,,,2,,3,,4,,5,,6,,7,,
3/8,,2,,1,,2,,7,,8,,7,8,7,,
1b-5[8:2]/6,,,,7,,7,,8,,8,,1,,1,,
2,,6,,2,,7,,2,,8,,2,,1,,
3/8b-4[8:1],,,,,,,,2b-5[8:1]/6,,,,,,,,
7b-3[8:1]/1,,,,,,,,2,,4,,3,,5,,6-1[8:2]/4,,,,4h[8:2],,,,,,,,2/1,,8-4[8:1]/3,,,,8/7,,,,7,,6,,,,4,,3,,3/6,,3/6,,2/7,,2/7,,1,8,2,7,1,8,2,7,1,,,,2b>8[8:3]/7b<1[8:3],,,,,,,,,,,,2x,,,,,,5x,,,,,,8x,,,,,,3hx[8:4],,,,,,,,,,4,5,
&inote_5=(169)
{1},,
{8}3,,3,,{16}5,4,5,4,5,4,5,4,
7h[8:4],,,,,,,,{8}2-5[8:1],,7,,6,6,,5-8[8:1],,4,4,3,
3,,6,5,4,3,2,1,
8<4[8:2],,4>8[8:2],,8V64[8:2],,4V28[8:2],,
8-4[8:2],,,,2,2,3,3,
4V28[8:2],,8V64[8:2],,4>8[8:2],,8<4[8:2],,
4-8[8:2],,,6b,,,2,,
3,4,7,8h[8:2],3,4,5,,
6bxqq3b[16:6]/7h[8:5],,,,,,8,8bx-5b[8:1],
,,2,,6,,3,,
5bqq8b[8:3]/4h[8:5],,,,,,2,2b-5b[8:1],
,,,,2/6,2/6,1/5,1/5,
8bpp3b[8:3]/4h[8:5],,,,,,5,5h[8:4],
,2,,2,3,3,4,5,
3/6,3/6,2/7,2/7,{16}1,8,1,8,1,8,1,8,
1-5[8:1],,,,1b>8[8:3]/Cf,,{16},,,,,,{8},,
,,2,,2,,2,,3qq8[8:4]
,,7,,7,,7qq4[8:4],,
2,,2,,2>5[8:3],,6,,
7,,8,,8x<4qq4[8:5],,4xpp4[8:3],,
,,,,,,7,,
6,,5<8[8:3],,4,,2,,
1,,6pp4[8:4],,2-5[8:2],,,,
,,,,7,,7,,
8<6[8:3],,,,4-1[8:2],,5,5,
,,2,,7>2[8:2],,2v4[8:2],,
,,,,3,,5,4,
5,,4/5,,3/6,,2/7h[8:4],,
1h[8:6],,,,,7,,7,
,,8qq6<7qq5<6-2[8:6],,3,,3,,
2qq7[8:4],,,,3,,3,,
6/4,4,7/3,3,8/2,2,7/1,1,
8b-4[8:10],,{1},{8},,,,2-5[8:3],,
,,,,7-4[8:3],,,,
1-5[8:3],,,,8b-4b[8:1],,8b,,
3,3,2/6,2,1/7,1,6/2,6,
3/7,7,4/8,8,1q5[8:1],,8h[8:2],,
2>4[8:1],,7h[8:2],,3<5[8:1],,6h[8:2],,
4>5[8:5],,5h[8:2],,,,,,{16}
4x,3x,2x,,{8}5hx[8:4]/1hx[8:4],,,,,Cf/B2/B3/B6/B7,
,,,,2-5[8:1],2,7-4[8:1],7,
1-5[8:1],,8-4[8:1],,4>8[8:2],,8<5-1[8:3],,
2,,2qq6[8:3],,7,7,7,,
5,7,3,1/6,7,8/4,3,5pp8[8:3]/2h[8:5],
,,,,,,7,1,
8,,1pp4[8:3],1,,6,6,7,
7,,1/2,3/8h[8:3],,,,,
{16}3x,2,1,8,7,6,5,4,3,2,1,,7x/8x,,6/1<6[8:3],,
{8},,,4,4,,2/1-5[8:1],,
7-3[8:1]/1,,2-6[8:1]/7,,8-4[8:1]/2,,3-7[8:1]/8,,
5-1[8:1]/3,,4qq5[8:2]/5,,5<4[8:3],,7x,,
,,6x/5x,,4x/6x,,3x/6V84[8:5],,
,,2,,2,,2h[8:2],,
,,3x/4x,,5x/3x,,6x/3V15[8:5],,
,,7,,7,,7h[8:2],,
,,4h[8:2],,5h[8:2],,,,
5/4,3,4/5,6,3/5,2,4/6,7,
{16}1,8,1,8,2,7,2,7,1-5[8:1],,,,1b/Cf,,,,
7,,7,,6,,6,,5,,5,,4,,4,,
5/7,,6,,4,,5/3,,,,3h[8:2]/5,,6,,7,,
8,,2,,1,,2,,8-5[8:1],,3,,8-3[8:1],,,,
8<5[8:1],,,,8>3[8:1],,,,8-4[8:1],,,,8,,,,
7/3,,6,,6,,6,,4,,3,,2,,1,,
1-4[8:1],,,,1-6[8:1],,,,1>4[8:1],,,,1<6[8:1],,,,
1,,,,2,,3,,4,,5,,6,,7,,
3/8,,2,,1,,2,,7,,8,,7,8,7,,
1b-5[8:2]/6,,,,7,,7,,6,,6,,4,,4,,
2,,6,,2,,7,,2,,8,,2,,1,,
3/8b-4[8:1],,,,,,,,2b-5[8:1]/6,,,,,,,,
7b-3[8:1]/1,,,,,,,,2,,4,,3,,5,,
6-1[8:2]/4,,,,4h[8:2],,,,,,,,2/1,,8-4[8:1]/3,,
,,8/7,,,,7,,6,,,,4,,3,,
2/5,,4/7,,3/6,,2/7,,1,8,2,7,1,8,2,7,
1,,,,2bz6b[16:5]/7bs3b[16:5],,,,,,,,,,,,
B3,,,,,,E5,,,,,,B6,,,,
,,Chf[8:5],,,,,,,,,B4,B5,
