&title=ØƵ
&artist=Hommarju ft. Mayumi Morinaga
&first=0
&des=開脆兔Rabbit
&clock_count=4
&lv_5=14
&inote_5=(200){1},
{4}
4h[8:19]/5h[8:19],,
(120),
(140),
(160),
(180),
(200),
(210),
(215),
(220)
{12}
4-2[44#48:1],5,4,5,,,
{16}
3,6,,3,
{24}
6,,,3,,4,,3,,
{16}
5,,4b,
(90){32},(130),(150),(180),(200),(210),(220)
{12}
4-1[44#48:1],5,4,5,,,
{16}
3,6,,3,
{24}
6,,,2,,4,,2,,
{16}
6,,
(350)4b,,(340),(320),,,(290),(250),(220)
{12}
4-8[44#48:1],5,4,5,,,
{16}
3,6,,3,
{24}
6,,,1,,4,,1,,
{16}
7,,4b,
(90){32},(130),(150),(180),(200),(210),(220)
(150){16}
1b,,,,
(170)2,,3,,
(180){12}4-8[46#64:10],5,6,
(190){16}7,8,1,2,
(200)3,4,5,6,7,8,1,2,3,4bh[64:62],,,,,,,,,,,
(180),,,,(160)6h[64:34],,,,(140),,,,
(160){12}1-4-7-2-5-1[8:25],,,,,,
(165)5x,,,6x,,,
(170)7x,,,6x,,,
(175)5x,,,8x,,,
(180)7xh[8:3],,,,,,
,,,,,,
E8,,,
{192}
,,,,,,,,,,,,,,,,,,,,,,,,E6,,,,,,,,,,,,,,,,,,,,,,,,
{12}
,,,E5,,,
{8}
6,6>8[4:2],,4h[8:2],,,4x,,
3,3-5-1-7[4:2],,6h[8:3],,,,,
5-7-1-3[8:6],,4,4,,3,3>5b[8:6],,
5,,4,,3,,,,
{8}
7h[4:1]/5h[4:1],,,,
(185)
6h[4:1],,3,3,
(190)
4/2h[4:1],,6,,
(195)
7h[4:1]/5,,3,,
(200)
1h[4:2]/4,,,7,7,,,,
5h[8:3],,,4h[8:3],,,3h[8:2],,
1,1pp4[2:1],,1,
(205)
,,,,
(210)
7,7qq4[2:1],,7,
(215)
,,1-7-3-5[8:5],,
(220)
1,,,,,,8,,
1h[8:1]/7h[8:1],,2h[8:1]/6h[8:1],,3h[8:1]/5h[8:1],,4b,,
{12}
7,6,5,7,6,5,7,6,5,7h[6:1]/4,,,
3,4,5,3,4,5,3,4,5,3h[6:1]/6,,,
7,6,5,8,7,6,1,8,7,62,,,
{16}
3h[16:1],,3h[16:1],,3,,5h[16:1],,5h[16:1],,5,,,,,,
2,1,2,1,2,,7,8,7,8,7,,6h[8:1]/3h[8:1],,,,
2,4,2,4,2,,7,5,7,5,7,,8h[8:1]/1h[8:1],,,,
3,4,2,4,3,,6,5,7,5,6,,7h[8:1]/2h[8:1],,,,
{12}
4,5,4,5,4,5,4,5,4,5,4,5,
4h[64:1],,4h[64:1],,4h[64:1],,
{32}
4bh[64:1],B4f/E5/E4,C,B8,A8,,,,,,,,,,,,
{8}
7p3[8:1],,7,1q5[8:1],,1,6,,
8p4[8:1],,8,3p7[8:1],,3,5,,
4-8[8:1],,4,2-6[8:1],,2,1,,
7<4[8:1],,7,2<7[8:1],,2,5,,
6,6h[8:6],,1,,2,,3,
4/B8,,6/B2,,3/B6,,7/B4,,1-5[8:2]*>1[8:4]/Cf,,,,,,,,
{12}
8,1,8,1,8,1,8h[64:1],,8h[64:1],,8h[64:1],,
{8}
4h[8:2],6,6,5h[8:2],7,7,2,2,
6h[8:2],4,4,5h[8:2],3,3,7,7,
1h[8:2],5,7,2h[8:2],5,7,3,3,
8h[8:2],4,2,7h[8:2],4,2,8,8,
4h[8:2],6,7,4h[8:2],6,7,B6,B2,
8h[8:2],2,3,8h[8:2],2,3,B2,B6,
(210){16}
1,7,1,7,2,6,2,6,
(200)
3,5,3,5,
(180)
4,6,4,6,3,7,3,7,
(170){16}
2,8,2,8,
(160)
1,7,1,6,
(140)
1,5,1,4,
(170){12}}1b-4-7-2-5-8-3-6-1[8:25]*-4-7-2-5-8-3-6-1[8:25],,,,,,
(180)7x,,,6x,,,
(190)5x,,,6x,,,
(200)7x,,,8x,,,
7xh[8:3],,,,,
,,,,,,,
{16}
D8/A7,,,,,,
A5/D5,,,,,,
{12}
C1/B5/B4,,,
{16}
8h[16:4],,,,,,1h[4:1]/7h[4:1],,
(205)
,,,,26,,,,
(210)
4h[16:4],,,,,,5h[4:1]/3h[4:1],,
(215)
,,,,62,,,,
(220)
8h[16:4]/5h[16:4],,,,,,2h[4:1]/3h[4:1],,,,,,6-2[8:2]/7-1-5-3[8:4],,,,
,,,,,,,,,,,,,,,,{8}
2h[4:1]/4h[4:1],,,,
(225)
3h[4:1],,6<1b[8:2],6,
(230)
1>4[8:2],,4<7b[8:2],,
(235)
7>2[8:2],,2-8-6-4b[8:6],,
(240)
4h[8:3],,,,3,,,,
2h[8:3],,,1h[8:3],,,8h[8:2],,
6-3[8:2],,,2-5[8:2],
(245)
,,7,,
(250)
8-5[8:2],,,2-7[8:2],
(235)
,,6qq3[8:5],,
(230)
8x,,
(220)
,,
(210)
,,
(180)
1,,
(170)
6h[8:1]/2h[8:1],,
(190)
7h[8:1]/3h[8:1],,
(200){32}
8b/4b,7x/3x,2x/6x,5x/1x,,,,,
(210){8}
,,
(220){16}
2,4,,3,5,,2,4,,3,5,,46,,,,
7,5,,6,4,,7,5,,6,4,,35,,,,
2,8,,1,7,,2,8,,1,7,,28,,,,
6,5,6,5,6,,3,4,3,4,3,,72,,,,
4,5,,8,7,,4,5,,2,1,,3h[8:1]/6h[8:1],,,,
5,3,,7,1,,6,4,,8,2,,3h[8:1]/7h[8:1],,,,
1/5b,,,,6,,7,,
{12}
8,1,2,
{16}
3,4,5,6,7,8,1,2,3,4,5,6,7,8,1w5b[2.05##0.2],,,,,,
4,6,4,6,3,5,3,5,2,4,2,4,1,3,1,3,
1x,2x,3x,4x,5x,6x,7x,8x,1bx,,,,,,,,
6h[4:1]/4,,,,4,,,,35,,,,24,,,,
1h[8:1],,6,,2h[8:1],,6,,3h[8:1],,7,,4h[8:1],,7,,
4,5,6,7,8qq6-8-2-4[8:3],1,2,3,48,,,,,,,,
2hx[8:3],,,,,,3h[8:3],,,,,,4,,,,
61,,7,8,7,,61,,7,8,7,,61,,,,
38,,2,1,2,,38,,2,1,2,,38,,,,
36,,5,4,5,,36,,4,5,4,,36,,,,
{12}
2,4,3,7,5,6,4,,4,,4,,
{16}
3h[4:1]/5,,,,5,,,,64,,,,7h[8:1]/5h[8:1],,,,
8h[8:1],,3,,7h[8:1],,3,,6h[8:1],,2,,5h[8:1],,2,,
5,4,3,2,1v3>5[8:3],8,7,6,51,,,,,,,,
8hx[8:3],,,,,,7h[8:3],,,,,,6,,,,
3b/5,,2,1,8,,3b/5,,1,8,7,,3/5,,,,
4/6b,,7,8,1,,4/6b,,8,1,2,,4/6,,,,
7/2b,,3,4,5,,7b/2,,6,5,4,,7/2,,,,
4h[8:1]/8h[8:1],,,,7h[8:1]/3h[8:1],,,,
{32}
26,1,8,7,6,5,4,3,2,1,8,7,6,5,4,3,
{12}
2bv5>3-8[8:8]/6bv1<7-4[8:8],,,,,,
{16}
,,,,
{24}
,,,,,,,,,
{16}
,,,
(90){32},(130),(150),(180),(200),(210),(220)
{12}
5-8[44#48:1],4,5,4,,,
{16}
6,3,,6,
{24}
3,,,7,,5,,7,,
{16}
3,,
(350)5b,,(340),(320),,,(290),(250),(220)
{12}
5-1[44#48:1],4,5,4,,,
{16}
6,3,,6,
{24}
3,,,8,,5,,8,,
{16}
2,,5b,
(90){32},(130),(150),(180),(200),(210),(220)
4b,,,,
(225),,,,
(230){12}3,2,1-5[23#64:19],
(240){12}8,7,6,5,
(250){12}4,3,2,1,
(255){12}8,7,6,5,
(260)4,3h[192:133],{16},,
(265),,,,
(270),,,,
(280)2h[192:139],,,,
(290),,,,
(300),,,,
(110)1h[8:12],
