&title=Violet Rose
&artist=OSTER project
&first=-0.79
&des=Jazz for my soul
&lv_5=14
&inote_5=(152)
{1},
{2}1/7p4[8:5],{2}3v8[8:1],
{8}4/8<1[8:5],,,,{16}8,,,7,,,6,,
{8}1b/5bpp6[8:2],,2,,5qq4[8:2],{16},6,5,,8,,
{8}7b,2/6b,1/5b,8/4b,7V15[8:2]/3b-7[8:1],,,,
{16}7,,5h[16:1],6,5,6h[16:3],,,7<5[8:1],,,,8,,1,,
{16}7,,5h[16:1],6,5,6h[16:3],,,7p3[8:1],,,,1h[16:1],,,,
{16}7,,5h[16:1],6,5,6h[16:3],,,8<4[16:3],,,,3,2,1,8,
{12},26,4h[12:1],6,2h[12:1],8,{8}4bqq2[8:1]*pp6[8:1],,,,
{16}4,5,4,3,4,5,6,5,{8}4z8[8:2],,,,
{16}7-4[8:1],,,8h[16:3],7,,,,4-6[32:3],,,3h[16:3],4,,,,
{16}7-5[32:3],,,2h[16:3],7,,,,5-8[8:1],,,8-4[8:1],5,,1,,
{16}2-5[8:1],,,4h[16:3],2,,,,5-1[8:1],,,7h[16:3],5,,,,
{16}1-6[8:1],,,8h[16:3],1,,,,5-2[32:3],,,2-6[8:1],5,,1,,
{16}8-4[8:1],,,4V68[16:3],8,,,,2,3,4,5,6,7,8,1,
{16}26,,3,34,,7/5-8[8:1],,4/8V61[16:3]*-4[8:1],,,,,,,,,
{16}3-8[8:1],,,5h[16:3],3,,,,8-4[8:1],,,7h[16:3],8,,,,
{16}4,5,4,3,4,5,6,5,4-8[8:1],,1b,,,,,,
{16}8-3[8:1],,,7h[16:3],8,,,,3-5[32:3],,,4h[16:3],3,,,,
{16}2h[256:1]/4h[16:5],,,6h[256:1],,2h[256:1],,3h[256:1]/5h[256:1],,4h[256:1]/6h[256:1],7b>2[8:1],,,,,,
{16}3v6[8:1],,,5h[16:3],3,,,,6v1[8:1],,,8h[16:3],6,,,,
{16}2v5[8:1],,,7h[16:3],2,,,,5V38[16:4],,,8,5,,7,,
{16}6-2[8:1],,,2<6[16:3],6,,,,4,3,2,1,8,7,6,5,
{16}4/8b,,26,26,,51,,2/6,,84,,2,6,4,5h[8:1],,
{24}1,2,3,5,6,7,2,3,4,{16}6h[8:1],,7b>5[8:2],,,,27,,,,
{12}1b<3[24:24],,5q2[24:20],{4},,,
{16},,,,,,,,1h[256:1]/3h[256:1],,1h[256:1]/3h[256:1],,1h[256:1]/3h[256:1],,,,
{16}45,,6h[16:7],5,,7,,5-3[32:3],,7,,6,6,,5,,
{16}4,,3h[16:7],4,,2,,4-7[8:1],,2,,3,3,,5,,
{16}5,,6h[16:7],5,,7,,5-1[8:1],,7,,6,6,,4h[24:11],,
{24},,2,3,,5,6,7,8,{16},1,,2,8,3,4,2,,,
{16}45,,6h[16:5],5,,7,,5,,67,,68,68,,13,,
{16}2,,3,4,2,5,,3qq2[16:3],,8,,7,7,,6,,
{16}5,,6,5,6h[16:5],7,,5,,7<4[8:1],,8,8,,1,,
{16}2,4,2,5,2,6,2,7,2b>5[8:1],,,,{24}1,8,7,6,,,
{16}5,,6h[16:7],4,,7,,4qq4[16:3],,7,,6,6,,5,,
{16}4,5,4h[16:5],3,,6,,3>8[8:1],,4,,5,5,,6,,
{16}7,8,7h[16:5],6,,1,,6>3[8:1],,7,,8,8,,1,,
{16}34,,6,5,
,25,,74,,56,,3,4,,7,,
{24}1,2,3,7,6,5,3,4,5,6,5,4,{16}3,,1b,,,1b,,,
{16}5,4,5h[16:5],6,,3,,6q7[16:3],,3,,2,2,,1,,
{16}1,8,1h[16:5],2,,7,,4b,,85,7,,{12}6/1-5[8:1],2,3,
{4}1p2[16:5]/4-8[8:1],,,{16}2/8,6b/4b,,,
{16}3h[16:7],,,1-5[8:1],,1V73[16:3],,1h[256:1],,,,,5,,4,5,
{16}3,,2v5[8:1],4,1,6V47[16:3],,,6,,3,,2,,1,,
{16}1-5[8:1],,2,8,1,,,7,4,6,3,5,2,6,3,7,
{16}4b>8[16:2],,8pp2[8:1],5,,7,,,4,5,6,7,3/8,2,1,8,
{16}7/5b,,2b,2/4-8[8:1],,7,,4b,,6,,1,5,,3,,
{16}1b/8h[8:1],,2h[8:1],,6h[8:1],,4h[8:1],,5,1,8,2,7,3,6,4,
{16}5,4,{24}8,7,6,3,2,1,7,6,5,4/8-5[16:2]*z4[8:1],,,,,,,,,,,,
{16}3,,2,4,1,4,3h[16:1],4,3h[16:1],6,3h[16:1],8,3<6[8:1],,1,,
{16}8-4[16:1]/3,,,8,6,,,1,7,2,6,1,5,8,4,1,
{16}6b,,7,5,8,5,6h[16:1],5,6h[16:1],3,6h[16:1],1,6,,8,,
{16}7/5b,,1,1,1,1,1,1,2,,8b,,3,,1b,,
{16}2,,2h[16:1],5,2h[16:1],7,2h[16:1],8,2,1,7,2,6,3,5,4,
{16}5b,,73,73,,26,,7/3,,15,,7,3,5,4h[8:1],,
{32}8b,7,6,5,4,3,1b,2,3,4,5,6,{16}8,,5h[8:1]/1b,,,,{12}37,37,37,
{1}1b<3[8:10]/5bq2[8:10],
{1},
{16}1/3h[16:2],,8,3h[16:1],8,3,,4h[8:1]/2,,5,,7,4h[8:1]/7,,,,
{16}4/2h[16:2],,5,2h[16:1],5,2,,5h[8:1]/3,,6,,8,1h[8:1]/8,,,,
{16}7/3h[16:2],,8,3h[16:1],1h[256:1],3,,5h[8:1]/2h[256:1],,6,,8,4h[8:1]/8h[256:1],,,,
{16}6h/2h[16:2],,5,2h[16:1],4h[256:1],2,,7h[8:1]/3h[256:1],,8,,6,8h[8:1]/6h[256:1],,,,
{16}1b/3h[16:2],,7,3h[16:1],5h[256:1],3,,4h[8:1]/2h[256:1],,6,,8,5h[8:1]/8h[256:1],,,,
{12},26,4h[12:1],8,2h[12:1],6,{12}4bqq2[12:1]/8,,4bpp6[12:1],,4b,,
{1},
{4},{24},,,2,4w8[24:73],5w1[1:3],7b,
