&title=蜘蛛糸モノポリー
&artist=sasakure.UK
&first=0
&lv_1=1
&des_1=
&inote_1=
(125)
E
&lv_5=14
&des_5=Cactus
&inote_5=
(200){4},1/7,1,{8}6,4<6[8:1],
,,,3,{4}4,{8}6x/4,5x,
4x,3x,{4}4/2h[4:1],6,{8}7,1<7[8:1],
,,,2,{4}8,{8}1x/7h[4:1],2x,
3x,4x,6,4,{4}5-1[4:1],{8}3,3,
,8h[8:3]/4h[8:3],,,,,{4}2/6,
{8},,3,5,{4}4-8[4:1],{8}6,6,
,1h[8:3]/5h[8:3],,,,,{4}7/3,
{8},,3-6[8:1],7,,,8,2,
7,7-4[8:1],,1,{4}1-5[8:1],8h[4:1],
{8},,6-3[8:1],2,,,1,7,
2,2-5[8:1],,8,{4}8-4[8:1],{8}1x,2x,
3x,5x,1-5[8:1],6,1,7,2,2,
8,8-4[8:1],1,8,1,5,{4}2-5[8:1],
{8}2/8,7,8-4[8:1],3,8,2,7,7,
1,1-5[8:1],8,1,8,4,{4}7-4[8:1],
7/2,1b-4[8:1],,8-5[8:1],
,3-6[8:1],,7-2[8:1],
,4-1[8:1],,5-8[8:1],
,2-7[8:1],,6-3[8:1],
,2-5[8:1],,6-1[8:1],
,3-8[8:1],,7-4[8:1],
,5-2[8:1],,1-6[8:1],
,8-3[8:1],,4-7[8:1],
,8b/1b-4[8:1],,3/8-5[8:1],
,7/3-6[8:1],,4/7-2[8:1],
,5/4-1[8:1],,2/5-8[8:1],
,6/2-7[8:1],,2/6-3[8:1],
,6/2-5[8:1],,3/6-1[8:1],
,7/3-8[8:1],,5/7-4[8:1],
,1/5-2[8:1],,8/1-6[8:1],
,4/8-3[8:1],,8/4-7[8:1],
{8},,1/8-4[8:1],2,8,3,5,1-5[8:1],
6,1,,7,{4}7,1h[8:1]/8h[8:1],
3h[8:1]/6h[8:1],{8}8/1-5[8:1],7,1,6,4,8-4[8:1],
3,8,,2,2xh[16:1],5,1h[24:1],8h[8:1],
1h[16:1],8h[16:1],1-5[8:1],7,1,6,4,8-4[8:1],
3,8,,2,{12}2h[24:1],1h[24:1],,{4}8xh[8:1]/3xh[8:1],
{8}6/3,2,5h[16:1],4h[16:1],5h[16:1],4h[8:1],5x,3xh[8:1]/6xh[8:1],
{32},,,,2x/7x-2-8[4:1],E3,B3,B4,E5,B5,B6,E7,,,,,,,,,,,,,{8}1,6,
4xh[16:1],5xh[16:1],{4}3xh[2:1],,4h[2:1],
,5h[2:1],,6h[2:1],
,7h[2:1],,8h[2:1],
,1h[2:1],,2h[4:1],
3h[4:1],4xh[2:1]/B4,,5h[2:1]/B5,
,6h[2:1]/B6,,7h[2:1]/B7,
,8h[2:1]/B8,,1h[2:1]/B1,
,2h[2:1]/B2,,3h[4:1],
4h[4:1],5xh[2:1]/C,,6h[2:1]/C,
,7h[2:1]/C,,8h[2:1]/C,
,1h[2:1]/C,,2h[2:1]/C,
,3h[2:1]/C,,4h[4:1],
5h[4:1],6h[4:1]/B2,7h[4:1]/B3,8h[4:1]/B4,
1h[4:1]/B5,2h[2:1]/B6,,3h[4:1]/B7,
4h[4:1]/B8,5h[4:1]/B1,6h[4:1]/B2,7h[4:1]/B3,
8h[4:1]/B4,1h[4:3]/Cf,,,,3h[2:1]/6b>8[1:1],
,,,8<2[1:1],
,,1,
2<4[1:1],,6,
,4>6[1:1],,8,
,6-3-8[1:1],,2,
,8-5-2[1:1],,4,
,2-7-4[1:1],,,5,
4x-1-6[1:1],3,4x,
5,6V42[2:1],,2V86[2:1],
,6,,3/7,
2/8,1x-5b[2:1],,1xw5[2:1],
,Cf,{8},,,,,3,
8b-6[8:1],4,8-4[8:1],1,8/2-5[8:1],3,
1/2,8-4[8:1],,8,1-5[8:1],1,7,7v4[8:1],
,7,1b-3[8:1],5,1-5[8:1],8,1/7-4[8:1],6,
7/8,1-5[8:1],,1,8-4[8:1],8,2,2v5[8:1],
,2,{4}8bqq6qq4qq2qq8b[1:2],{8}1,1,,2,
2x,2x,,3,3x,3x,,4,
{4}4x,5bx>1[2:1],{8},1,1x-4[8:3],1x,
,4-8[4:1],,8<5[4:1],,5-1b[4:1]*>2[4:1],,A5f,
,,7b-5[8:1],8-4[8:1],7,8,1-7[8:1],2-6>8b[8:7],
1,2<4[8:5],,2x,,,,,,,2b-4[8:1],
1-5[8:1],2,1,8-4[8:1],7-5[8:1],
8,7,1-3[8:1],8-6[8:1],1-5b[8:1],8-4b[8:1],1bx,8bx,
,3,{4}2x/1b<5[16:3],4,7x/8>4[16:3],
{8}5,5<1[4:1],,1>5[4:1],,5-1b[4:1]*<8[4:1],,A5f,
,,{4}2b/7b,{8}8/1,7x/2b-6[8:1],,2x/8b-4[8:1],
,8x/1b-5[8:1],,1x/7b-3[8:1],,7x/2b>8b[4:1]*>7[24:5]*>6[6:1]*>5[8:1]*>4[12:1],,Cf,
,,{4}3/6,,,,1/4,
,,,7/2,
,,,8/5,
{8},,,,,,3,
4,3,4,3,4,
3,4h[4:1],,5,{4}5h[2:1],A7/E8/B7,
A2/E2/B2,{8}6,5,6,5,6,5,
6,5h[4:1],,4,{4}4h[2:1],A2/E2/B2,
A7/E8/B7,1h[1:1],,2,
,3h[1:1],,4,
,5h[1:1],,6,
,7h[1:1],,8,
1,8h[4:5],,B5/B4/B3,
,2h[4:5],,B7/B6/B5,
,4h[4:3],,B7/B8/B1,
,7b/2b,{16}1,8,1,8,1,8,1,8,
1,8,1,8,{8}1,7,7x<5[4:1],,,2x,
,1x,6,7,{4}2-6[16:3]/8x-4[16:3],2/8,
{8},,5,4,{4}3/6,8/1,
{8}2,8/1,7,8/1,{4}2,8v3[16:3]/1v6[16:3],
{8},,2,7,1,8,{4}2/7,
4/5,{8}3,6,4,5,{4}3/6,
8/1,1h[8:1]/8h[8:1],7/2,3h[8:1]/6h[8:1],
4qq1[4:3]/5pp8[4:3],5b/4b,{8},,,,,,7x/2,
5,4,1/3x,8,2,
6/3x,{16}1,8,{24}1x,2x,3x,4xh[8:1],,,,,,{8}C,{16}3,2,1,8,
7,6,5,4,3x/7x,2x/6x,{8}1x/5xh[2:1],{16}8x,1,2,3,{4}4xh[4:1],
{8},2b/7b,,5/4,6/3,{16}5,4,{8}3x,5x,
7xv4[8:1],1x>2-4[8:1],7bx,1bx,6,5,4,3,
7,{16}1,8,{8}2,1x,8x,7<6-4[8:1]/1>2-4[8:1],,1b/7b,
{16},,,,5x/2x,4x,3x,2x,1x,8/4,7/3,6/2,{8}1/5,8x>3[8:1]/4x<7[8:1],
,8/4,,C,{16}4,5,4,5,4,5,3,6,
3,6,3,6,{8}2xh[4:1],5,4,5h[4:1],1,8,
1h[8:5],{16}4x,5,6,7,{8}8xh[8:3],{16},,,,2,3,4,5,
6,7,8,1,2x/6x,3x/7x,{8}4xh[16:3]/8xh[16:3],{16},,3x/7x,2x/6x,{4}1x/5xh[8:1],
{8}3/4,1/7,,2/5,3,{16}7,6,{8}5h[8:1],3h[8:1],
1h[8:1],7h[4:1],6x,6x,8,5,{16}1,2,{8}3xh[2:1],
8,{16}8,7,{4}6xh[4:1],{8},8/1,,5h[4:1]/4h[4:1],
{16},,,,3,6,3,6,2,7,2,7,{8}1h[4:1],8h[8:1],
,2h[8:1]/7h[8:1],,3/6,{16}5,4,5,4,5,4,6,3,
6,3,6,3,{8}7b,{16}2,1,{8}2,3/6,{16}7,8,{8}7,
8/1,2/7<2[2:1],,E7,E6,E5,E4,E3,
,8/1,2b,{16}7,8,{8}7,6/3,{16}2,1,{8}2,
8/1,7/2>7[2:1],,E3,E4,E5,E6,E7,
,4/5,{4}2b/7b,{8}5,6/4,,6xv3[8:1]/2xv5[8:1],
3/5,2x/6x,,8xqq6[8:1]/2xpp4[8:1],7/3,8x/2x,,1b,
,4x,5/3,1x,7/2,6V41[8:1]/3V58[8:1],,,,2xh[4:1]/7xh[4:1],
,,E7/B6/B7,B2/E3/B3,,8xz4[4:1]/1xs5[4:1],
,1/8,{4}Cf,{8},8-4[8:1],2,8,
1-5[8:1],7,1,6-1[8:1],4,6,2b,2b,
,7,1-6[8:1],5,1,4-1[8:1],,4/7-2[8:1],
,7/3-6[8:1],,3/8-5[8:1],8,2-7[8:1],2,4b,
,5,{4}1q6[16:3]/5q2[16:3],{8},,,1<8-6[8:1]/5>4-2[8:1],
,,,1x/5x,{2}2x-4[8:1]/6x-8[8:1],
{8},1-7[8:1]*-6[8:1],,1b-3[8:1]*-4[8:1],,1b,,,6/5,
4/7-2[8:1],,7/3-6[8:1],,3/8-5[8:1],,8/2xw6[4:1],
,,{4}Cf,,,,B1/B2,
,,3,
4h[2:1]/B2/B3,,5h[2:1],
,6h[2:1]/B3/B4,,7h[2:1],
,6h[2:1]/B5/B4,,5h[2:1],
,4h[2:1]/B6/B5,,3h[4:5],
,B7/B6,,,4h[4:1],
5h[4:1]/B7/B8,4h[4:1],5h[4:1],
6h[4:1],5h[2:1]/B8/B1,,6h[4:1],
5h[4:1],4h[2:1]/C,,,,C/B2/B3/B7/B6/B1/B8/B4/B5,
,,,E1/D5/D4/D6/D2/D8/D3/D7/B8/B1/B7/D1/B2/B3/B5/B4/E5/E6/E4/E3/E7/E8/E2/B6/Cf,
{1},,,,{4},{16},,,Ch[4:15],
,,,,,,,,,,1w5b[3.675##0.075],2,{4}3h[4:11],
{1},,{4},,{16},,,1bx,
{1},,{4},{8},8/1,
7/2-5[8:1],2,6-1[8:1],6,4-7[8:1],4,
8,8xh[4:1],,6x,1/5,8/4,3/7,2/6,
,8/1,2/7-4[8:1],7,3-8[8:1],3,5-2[8:1],5,
1,1xh[4:1],,3x,4/8,1/5,2/6,7/3<6[8:1],
,3,{4}7b>2[8:1],{8}7,3<5-1[4:1],,1>3[64:7],
,6>4-8[4:1],,8<6[64:7],,3<6[8:1],,3,
{4}7b>2[8:1],7/4-2-5-1-6[2:1],{8},,,,,7h[8:1]/2h[8:1],
,3b/6b,,5-2[8:1]/4-7[8:1],,5b/4b,
,,8b-6[8:1],3,8-2[8:1],5,8-4[8:1],4,
8,1b>6[2:1],,E2,E3,E4,E5,E6,
,,1b-3[8:1],6,1-7[8:1],4,1-5[8:1],5,
1,8b<3[2:1],2h[8:7],E8,E7,E6,E5,E4,
,,6-3[8:1],6,2-5[8:1],2,7-4[8:1],7,
3-6[8:1],3,,8-6[8:1]*-5[8:1],1,8x-2[8:1]*-3[8:1],,8x,
,5,{4}6/4,{8}4,5/3,,7/4,
,2/5,,8h[96:1]/6h[96:1],,1h[96:1]/3h[96:1],,5h[4:1]/4h[4:1],
,,8b/1b,2,3,4bx/5bx,6,7,
8bx/1bx,7bh[4:1]/2bh[4:1],,,4/5,4/5,3/6,5h[4:1]/4h[4:1],
,,1b/8b,7,6,5bx/4bx,3,2,
1bx/8bx,2bh[4:1]/7bh[4:1],,,5/4,5/4,6/3,4h[4:1]/5h[4:1],
,,{4}6/3<6[8:1],{8}1,1>4[8:1],,7,
7,7>2[8:1],,5,5,5<8[8:1],,3,
3pp5[4:1]*p7[4:1],,,,,4,5,3,
6,2,7,1-4[8:1]*-6[8:1],,1b,,3x,
{4}7-4b[8:1],7x/8-3[8:1],8x/7-4[8:1],{8}7x/8,8>3[8:1],
,8x/5b,,6,6,3h[4:1]/6h[4:1],,,2-5b[8:1],
8,{4}2x/1-6[8:1],1x/2-5[8:1],{8}2x/1,1,
4,4b,5,5,1,2h[4:1]/7h[4:1],,,8<5b[8:1],
8,8b/1b>4[8:1],1,1/8<5[8:1],8,8b/1b>4[8:1],1,
1/8,8b,,3,6,4h[4:1]/5h[4:1],,,4>1b[8:1],
5,4b/5b<8[8:1],5,5/4,4,,8x-4[8:1]/1x-5[8:1],
,8bx<6b[8:1]/1bx>3b[8:1],,8bx-4[8:1]/1bx-5[8:1],,8bx>4b[8:1]/1bx<5b[8:1],{24},,,8b/1b,E8/E2,E3/E7,
{8}E4/E6,{24}5bx/4bx,6x/3x,2x/7x,{4}1bxh[8:17]/8bxh[8:17],{8},,,,,,,,,,,,,,,,8/1,
8/1,8/1,8/1,
8/1,8/1,8/1,8/1,8/1,8/1,8/1,8/1,
8/1,8/1,{4}7xh[4:7]/2x-4[8:1],{2}2x,
{4},4x-6[8:1],{2}4x,
{4},3xh[4:7]/6x-8[8:1],{2}6x,
{4},8x-2[8:1],{2}8x,
{4}6x>4<6>4<6>4<6>4[8:7],{8}A6,A4,A6,A4,A6,A4,
A6,A4,,,,,{4}8/2,
3x<5>3<5>3<5>3<5[8:7],{8}A3,A5,A3,A5,A3,A5,
A3,A5,,,,,{4}1/7,
2x<8>2<8>2<8>2<8[8:7],{8}A2/E3,A8/E8,A2/E3,A8/E8,A2/E3,A8/E8,
A2/E3,A8/E8,,,,,{4}6/4,
7x>1<7>1<7>1<7>1[8:7],{8}A7/E7,A1/E2,A7/E7,A1/E2,A7/E7,A1/E2,
A7/E7,A1/E2,,,,,{4}3/5,
,6-8v1-3[2:1],,,,1<1[2:1],
,,,6-8-4-1[2:1],
,,,1<7<5>3>1[2:1],
,,,7pp8-5[2:1],
,,,1<8<7<6>5>4>3>2<1[2:1],
,,,8-5-3[2:1],
,,,4v1[2:1]*v7[2:1],
,,,Ch[4:1],
,,,Ch[4:1],
,,,Ch[4:1],
,,,Ch[4:1],
E
