&title=Stormy Rage
&artist=打打だいず vs. siromaru
&first=0.05
&des=Paradigm: Reboot
&lv_5=14+
&inote_5=(165)
{1},
{8}3-8-6-1-4[2:3]/6h[8:1],,6h[8:1],,5h[8:1],,5h[8:1],,
{8}4h[8:1],,4h[8:1],,5h[8:1],,6h[8:1],,
{8}6-1-3-8-5[2:3]/3h[8:1],,3h[8:1],,4h[8:1],,4h[8:1],,
{8}5h[8:1],,5h[8:1],,4h[8:1],,3h[8:1],,
{8}4xV26-1[8:5]/5xh[8:1],,6,6,7,7,8,8,
{8}5xV73-8[8:5]/4xh[8:1],,3,3,2,2,1,1,
{16}2x/5x,,3,4,{24}3,5,4,{16}6h[8:1],,1h[8:1],,,B2/B3/6,,B8/B7/4,,,
{8}6b-2V84[8:5]/2b,,,,3,4,3,2,
{16}3/5,,5,3,8,3,6,3,1,3,5,3,8,3,6,,
{16}7/4,7/4,,3/5,3/5-1[8:1],,7V53[4:1]/5,7/5,,,,,,,,,
{16}2/8,,4h[16:1],6,1h[16:1],6,3h[16:1],6,8h[16:1],6,4h[16:1],6,1h[16:1],6,3h[16:1],,
{16}3/4,,1/2,,7/8,,5/6,,3/4,,2/5,,6<4[4:1],4,8,5,
{16}7h[4:1],,,,,,7,5,6,4,5,3,4,,1>4[8:1]/5<8[8:1],,
{16},,1-6[8:1]/5-2[8:1],,,,1/5,,,,3,4,3>5[4:1],5,1,4,
{16}2h[4:1],,,,,,2,4,3,5,4,6,5,,8<5[8:1]/4>1[8:1],,
{16},,8q4[8:1]/4q8[8:1],,,,4/8,,,,3,7,2,6,1,5h[16:5],
{16},,,,{48}E3,B3,B4,,,,{16}6,5,8h[8:1],,3,4,1h[4:1],,6h[8:1],,
{16},,3-1[8:1]/7-3[8:1],,,,3/7,,,,8/4,,1/5,,2/6,,
{16}3h[8:1]/B7/B8,,4,2,5,3,6,2,5-1[8:1],3,4,2,5,,3,,
{16}7h[8:1]/B3/B2,,5,6,4,7,3,6,4-8[8:1],7,5,6,4,,7,,
{16}3h[8:1],,4,2,6h[8:1],,5,7,2h[8:1],,4,3,1>4[8:1],,2,8,
{16}1b,,,,6,5,6,5,4/7,,5/8,,3/4,,1/5,,
{16}5h[16:3]/B2,,,3,4,4,4,3,5h[16:3],,,4,5h[16:3],,,4,
{16}5,,3,4,3h[8:1],,5,4,5h[16:3],,,3,3,5,4
,6,
{16}2h[16:3],,,5,4,4,4,5,3h[16:3],,,5,4h[16:3],,,5,
{16}2h[16:3],,,4,3h[16:3],,,5,4h[16:3],,,6,5h[8:1],,6,,
{16}4h[16:3]/B7,,,6,5,5,5,6,4h[16:3],,,5,4h[16:3],,,5,
{16}4,,6,5,6h[8:1],,4,5,4h[16:3],,,6,6,4,5,3,
{12}8-5[8:1]*-3[8:1],8,8,8b,,,4-1[8:1]*-7[8:1],4,4,4b,,,
{12}2-5[8:1]/6-1[8:1],2/6,2/6,{16}2b/6b,,,3x/7x,,5x/6x,,3x/5x,3x/5x,,4,6,
{16}3,5,1,8,{24}5,6,5,6,5,7,{16}4,6,1,8,{24}3,4,3,4,2,4,
{16}3,5,1,8,{24}5,6,5,6,5,7,{16}4,6,1,8,B2/E3,,E7/B7,,
{16}6,4,8,1,{24}4,3,4,3,4,2,{16}5,3,8,1,{24}6,5,6,{16}4,7h[16:3],
{16},,5,,1/8,,2/4,,7-5[8:1],1,8-4[8:1],2,7,,8,,
{16},,1/3,,5/4,,6/8,,2-5[8:1],5,1-6[8:1],7,2,,1,,
{16},,4-8[8:1],8,2,6,4,,7-3[8:1],1,5-1[8:1],3,7,,5,,
{24},,,6h[8:1],,,4,5,4,6,5,6,3,5,3,7,5,7,2,4,2,6,4,6,
{24}1,5,1,5,1,5,1,5,1,5,1,5,{32}E2,E3,E4,E5,E6,E7,E8,E1,E2,E3,E4,E5,E6,E7,E8,E1,
{8}Cf,,,,,,,,
{4}1xv4[2:1]*>1[1:2],,,,
{4}C,,,,
{4}1x-5[2:1]*>1[1:2],,,,
{4}C,,,,
{4}1xv6[2:1]*>6[4:7],,,,
{4}C,,,,
{4}7xh[4:3],,5xh[2:1],,
{4}6V83[2:1],1,3V51[2:1],6,
{4}1-6-4[2:1],3,4-8[4:1],2,
{4}3>1-6[2:1],8,6>4-8[2:1],3,
{4}8>5[2:1],6,5-1[4:1],7,
{8}8xV62[4:1],,3,2,1V73[4:1],,4,5,
{8}6xV84[4:1],,3,4,5-1[8:1],,1,8,
{16}7x/4x,,6,5,{24}6,4,5,{16}3h[8:1],,8h[8:1],,,B7/B6/3,,B1/B2/5,,,
{8}3bs7-1-5[8:5]b/7b,,,,6,5,6,7,
{16}6/4,,4,6,1,6,3,6,8,6,4,6,1,6,3,,
{16}2/5,2/5,,6/4,6/4-8[8:1],,2z6[4:1]/4,2/4,,,,,,,,,
{16}7/1,,5h[16:1],3,1h[16:1],3,4h[16:1],3,{32}6x,5,6,,3x,4,3,,5x,4,5,,1x,,,,
{16}2/3,,4/5,,/6/7,,8/1,,3/4,,2/5,,3,4,1,5,
{32}2bh[4:1]/E4,E3,E2,E1,E8,E7,E6,E5,4xh[8:1],,,,{16}3,4,1,6,2-4[8:1],5,1,,2-8[8:1]/6,,
{16}8,,2-5[8:1]/6-1[8:1],,4,,2/6,,,,4,4,6,5,8,4,
{32}7bh[4:1]/E6,E7,E8,E1,E2,E3,E4,E5,5xh[8:1],,,,{16}6,5,8,3,7<5[8:1],4,8,,7>1[8:1]/3,,
{16}1,,7p3[8:1]/3p7[8:1],,5,,7/3,,,,1,1,8<5[8:1],2,7,1,
{16}8b,,,,4h[8:1],,5,3,8h[8:1],,2,6,4h[8:1],,8-2[16:1],,
{16},,8b/3-7[16:1],,,6-1[16:1]/3b,,,6b/4-6[16:1],,,4b/8-4[16:1],,,8b,,
{16}1,2,3,,4/7,,3/1,,2/6,,4/5,,7/8,,3/4,,
{16}1/2,,{32}8,7,6,5,3b,,,,7,6,5,4,{16}2b,,3,3,5,4,8,5,
{32}7bh[4:1]/E6,E7,E8,E1,E2,E3,E4,E5,5xh[8:1],,,,{16}8,5,6,3,7<4[8:1],4,8,,7>2[8:1]/3,,
{16}1,,7-3[8:1]/3-7[8:1],,5,,7/3,,,,6,6,4,5,1,4,
{32}2bh[4:1]/E4,E3,E2,E1,E8,E7,E6,E5,4xh[8:1],,,,{16}1,4,3,6,2>5[8:1],5,1,,2<7[8:1]/6,,
{16}8,,2v4[8:1]/6v8[8:1],,4,,2/6,,,,6,6,1,5,8,4h[16:5],
{16},,,,{48}B1,B2,E3,,,,{16}6,4,8h[8:1],,3,5,1,,2-5[8:1]/6-1[8:1],,,
{16},2-7[8:1]/6-3[8:1],,,,2/6,,,,8/4,,1/5,,2/6,,
{16}3h[8:1]/B7/B8,,4,2,5,3,6,2,5-1[8:1],3,7,1,5,,3,,
{16}7h[8:1]/B3/B2,,5,6,4,7,2,6,4-8[8:1],8,2,6,4,,7,,
{16}2h[8:1],,4,3,7h[8:1],,5,6,1h[8:1],,4,3,8w4[8:1],,1,7,
{16}8b,,,,6,2,7,1,8,8,8,8,8,8,8,8,
{48}7,6,5,,,,{16}1,{48}1x/E5,B5,B6,,,,{16}3,{48}3x/8,7,6,,,,{16}2,{48}2x/B5,B6,E7,,,,{16}4,8,2h[8:1],,,
{16}6,{48}6x/2,3,4,,,,{16}8,{48}8x/E5,B4,B3,,,,{16}7,{48}7x/1,2,3,,,,{16}8,{48}8x/B4,B3,E3,,,,{16}6,6,2,2,
{48}7,6,5,,,,{16}1,{48}1x/E5,B5,B6,,,,{16}3,{48}3x/8,7,6,,,,{16}2,{48}2x/B5,B6,E7,,,,{16}4,8,2h[8:1],,,
{16}6,{48}6x/2,3,4,,,,{16}8,{48}8x/E5,B4,B3,,,,{16}7,{48}7x/1,2,3,,,,{16}8,{48}8x/B4,B3,E3,,,,{12}1/6,1/6,1/6,
{16}3/4,3/4,3/4,,1/7,1/7,,5/6,5/6,5/6,,2/8,2/8,,1/5,1/5,
{16},3/4,3/4,,5/7,5/7,,1/4,1/4,,5,5,3,6,4,7,
{16}5h[8:1]/8h[8:1],,,,6,3,5,2,1h[8:1]/4h[8:1],,,,2,8,3,7,
{16}4h[16:3],,,6h[16:3],,,1h[8:1],,6,2,8,4,3/7,2/6,1/5,4/8,
{16}3xh[8:1]/7xh[8:1],,,,2/6,3/7,4/8,5/1,2xh[8:1]/6xh[8:1],,,,4,4,8,3,
{16}B6/E7,5,6,B3/E3,4,3,E8/B7,5,6,E2/B2,4,3,6,2,5,1,
{32}4xbq6<1b[16:23]`8xbq2>5[16:23],,,,,,,,,,,,,,,,,,,,,,,,,,,,,,,,,,,,,,,,,,,,,,,,,,,,,,,,E5,E1,E4,E8,E3,E7,E2,E6,
{1}Cf,
