&title=SIGMA
&artist=Kry.exe
&first=1.255
&des=Greentea_3064 v.s. emoJi
&lv_5=14+
&inote_5=(200)
{8}1,2,3,,5,,3,1,,2,3,,2,,2,
{16}3x,2x,
{8}B6,,,B6,B2,,,B6,E6,,,B6,B2,E3,B6,B2,
{8}8,7,6,,4,,6,8,,7,6,,7,,7,
{16}6x,7x,
{8}B3,,,B3,B7,,,B3,E4,B3,,B7,,B3,E4,B7,
{16}2,,3,,4,,,,6,,,,3,,2,,,,3,,4,,,,3,,,,3,,,4,3,,3,,4,,5,,6,,,,
{16}6,,,
{24}5,
{48},
{16}6,,5,,5,,
{24},7,
{48},,
{16}8,,1,,2,,2,,
{16}2/8,,3,,4,,,,5,,,,3,,7,,,,2,,6,,,,2,,,,2,,,3,2,,1,,8,,7,,6,,,,4,,6,,3,,5,,5,,3,6,2,,1,,8,,7,,
{8}1b-7v5-3[4:30]/6h[4:4],,,,,,,,5h[4:2],,,,6,7,6,,2h[4:3],,,,,,4,2,5h[8:3],,,6h[8:3],,,7h[8:2],,5h[8:3],,,4h[8:3],,,2h[8:2],,6h[8:3],,,7h[8:3],,,8h[8:2],,2h[4:3],,,,,,6,5,7h[8:3],,,,,,,,
{16}3-1[8:1],,5,,3,,5,5,3-1[8:1],,5,,3,,5,,
{16}6-8[8:1],,4,,6,,4,4,6-8[8:1],,4,,6,,4,,
{16}2-4[8:1],,8,,2,,8,8,2-4[8:1],,8,,2,,8,,
{16}7-5[8:1],,1,,7,,1,1,7-5[8:1],,1,,7,,1,,
{16}1b-5[8:1],,7,,1-4[8:1],,7,7,1>3[8:1],,7,,1,,7,,
{16}8b-4[8:1],,2,,8-5[8:1],,2,2,8<6[8:1],,2,,8,,2,,
{16}1/8,,2,,3/7,,6,,5/2,,3,,4/8,,7,,6/2,,,,1/5,,,,8,1,2,3,8,7,6,5,3b/4b,,2,,3/4,,5,,6/5,,4,,6/5,,7,,1/8,,2,,1/8,,7,,1,7,1,7,2,8,2,8,
{16}2/1,,3,,2/1,,8,,7/8,,1,,7/8,,6,,4/5,,3,,4/5,,6,,4,7,4,7,3,8,3,8,
{16}2/1,,2,,2/8,,2,,7/8,,7,,7/1,,7,,1/8,,2,,1/8,,7,,1,6,1,6,2,5,2,5,
{16}3/4,,3,,3/5,,3,,6/5,,6,,6/4,,6,,4/5,,3,,4/5,,6,,4,6,4,6,3,7,3,7,
{16}2b/8b,,5,,1/7,,4,,2/8,,5,,1/7,,4,,1/2,,5,,8/7,,4,,1,8,7,6,8,1,2,3,
{16}6/4,,1,,3/5,,8,,6/4,,1,,3/5,,8,,6/5,,1,,3/4,,8,,1,2,3,4,2,3,4,5,
{16}6/1-7v5-3[8:4],,6,,6,,6,,6,,6,,6,,,,
{16}7/2-8v6-4[8:4],,7,,7,,7,,7,,7,,7,,,,
{16}1bh[4:3],,,,,,,,5bh[4:1],,,,,,,,1b-6b[8:1]/5b-2b[8:1],,,,1b/5b,,,,6/2,7/3,8/4,1/5,2/6,3/7,4/8,5/1,
{16}5-2[8:1]/1-6[8:1],,1/5,,1/5/Cf,,,,2-6[8:1],,1-5[8:1],8,2,,1,,8-4[8:1],,7-3[8:1],6,8,,7,,1-3[8:1]*-6[8:1],,8,,1,,,,
{16}1/8,,2,1,3<6[8:1],1,2,,3/8-4[8:1],,7,,1/8,,2,,
{16}8/1,,7,8,6>3[8:1],8,7,,6/1-5[8:1],,2,,8/1,,7,,
{16}1>4[8:1]/8<5[8:1],,1/8,,A1/A8/D1f,,,,1-5[8:1],,7-3[8:1],8,1,,7,,2-6[8:1],,8-4[8:1],1,2,,8,,1-3[8:1],,8-6[8:1],,1,,8,,
{16}4,5,2,8,3,5,1,7,3-1-5[6:1],8,1,6,3,,,,
{16}4,3,7,1,6,4,8,2,6-8-4[6:1],1,8,3,6,,,,
{16}2h[16:3]/C,,,8h[16:3]/C,,,2h[8:1]/C,,1w5[8:1],,,,1,,,,
{16}7h[16:3]/C,,,1h[16:3]/C,,,7h[8:1]/C,,8w4[8:1],,,,8,,,,
{64}1b,2,3,4,,,,,,,,,1b,2,3,4,,,,,,,,,1b,2,3,4,,,,,
{16}8,1,8,1,8h[8:1],,,,
{64}7b,6,5,4,,,,,,,,,7b,6,5,4,,,,,,,,,7b,6,5,4,,,,,
{16}1,8,1,8,1h[8:1],,,,
{32}2/C,3,4,,,,8/C,7,6,,,,1/C,2,3,,1w5[8:1],,,,,,,,1,,,,,,,,
{32}7/C,6,5,,,,1/C,2,3,,,,8/C,7,6,,8w4[8:1],,,,,,,,8,,,,,,,,
{16}4,,4,,5,,5,,3,,3,,6,,6,,2,7,2,7,1,8,1,8,
{32}1,2,3,4,5,6,7,8,1-5[8:1],2,3,4,5,6,7,8,
{16}1b-3[8:1]/7,,,,1-5[8:1]/7,,,,1-3[8:1]/7,,7,,1-5[8:1],,7,,1-3[8:1],,7,,1-5[8:1],,7,,1-3[8:1]/7,,7,,1/7-5[8:1],,7,,
{16}7-3[8:1]/4,,,,7-5[8:1]/4,,,,7-3[8:1]/4,,4,,7-5[8:1],,4,,7-3[8:1],,4,,4/7-5[8:1],,4,,7-3[8:1]/E4,B3,B2,E2,7/1x,,1,,
{16}7-3[8:1],,3-5-8[8:1],,7,,1,,2-5[8:1],,2,,2/8,,8,,
{16}2-6[8:1],,6-4-1[8:1],,2,,8,,7-4[8:1],,7,,7/1,,1,,
{4}2bh[4:2],
{32}E2,B2,B3,E4,
{8},
{4}7bh[4:2],
{32}E8,B7,B6,E6,
{8},
{4}3bh[4:2],
{32}E4,B3,B2,E2,
{8},
{4}6bh[4:2],
{32}E6,B6,B7,E8,,,,,
{16}5/3,,,,E7/B6/3,,,,5/3,,2,,E7/B7,,3h[8:3],,5,,,,E7/B6,,4,5,3,8,1,6,2,5,3,7,
{16}4/6,,,,E3/B3/6,,,,4/6,,7,,E3/B2,,6h[8:3],,4,,,,E3/B3,,3,7,2,6,4,8,3,7,1,5,
{16}3/B8/B1,,,,B4/B5/7,,,,3/B8/B1,,3,,B4/B5/7,,3h[8:1],,B8/B1,,,,B4/B5/7,,,,B1/B8/3h[16:7],,,,7h[16:11],,,
{64}E4,B4,B5,E6,
{16}6hx[4:3],,,,,,,
{64}E8,B8,B1,E2,
{16}2hx[8:3],
{16},,,
{4},
{16}1h,5h,8h,4h,7h,3h,6h,2h,5h,1h,4h,8h,7v4[8:1]/3v8[8:1],4/8,1/5,2/6,
{16}3b/7b/Cf,,,,1/7,,4/6w2[8:1],,2w6[8:1]/8,,Ch[8:1],,,,,,
{16}2>5[8:1],,1,8,2-6[8:1],,7,7,2-5[8:1],,1-6[8:1],8,2,,1,,
{16}2,,3/5,,2-7[8:1]/8,,4/6-3[8:1],,2-5[8:1],,6-1[8:1],,2,,6,,
{16}2>4[16:3],,,4v1[8:1],,,1,,
{16}8v5[8:1],,,5<7[8:1],,,5,,
{16}1b/Cf,,,,8/2,,5/3w7[8:1],,7w3[8:1]/1,,Ch[8:1],,,,,,
{16}7<4[8:1],,8,1,7-3[8:1],,2,2,7-4[8:1],,8-3[8:1],1,7,,8,,
{16}7,,6/4,,7-2[8:1]/1,,5/3-6[8:1],,7-4[8:1],,3-8[8:1],,7,,3,,
{16}1/7,,
{24}7,6,5,
{16}3/4,,1,,2>7[4:1]/8q5<7[4:1],,3/7,,2/8,D4,A5,D7,
{16}2b-5-3[8:2],,,,2/8,,8-4-7[8:2],,,,8/2,,2,,,,
{16}2,,6,6,3-7>1-5>3[4:2],,7,7,3,,6,,6,,6,,
{16}7>1[8:1],,2,3,7<5[8:1],,3,4,7-3[8:1],,2,3,7,,2,,
{48}2x>5[8:1],1x,8x,7x,,,
{8},
{48}1x/2x,8x,7x,6x,,,
{8},
{48}8x>3[8:1],7x,6x,5x,,,
{8},
{48}8x/7x,6x,5x,4x,,,
{8},
{16}6b-3-5[8:2],,,,6/1,,1-5-2[8:2],,,,1/7,,7,,,,
{16}7,,3,3,6-2<8-4<6[4:2],,2,2,6,,3,,3q4<5[4:1],,3,,
{16}3b/7b,,7,,7q8>1[4:1],,7,,7b/3b,,3,,3,,3,,
{16}3,3,7,7,2,2,8,8,1,1,1,1,1w5b[8:1],1,1,1,1b,
E
