&title=inkar-usi
&artist=DIA
&first=0
&des=tcxlz-mufc
&lv_5=13
&inote_5=(102){4},,,,
{8}4<7[8:4],3,,3,,3,,3,
4<7[8:4],3,,3,,3,,3,
4<7[8:4],3,2,,3,,3,2,
4<7[8:4]/1,,3-8[8:2],,,,,,
{8}7-4[8:1]/4b,3,2h[8:1],,7-4[8:1]/4,3,2h[8:1],,
7-4[8:1]/4,3,2h[8:1],,2-5[8:1]/5,6,7h[8:1],,
7-4[8:1]/4,3,2h[8:1],,7-4[8:1]/4,3,2h[8:1],,
7-4[8:1]/4,3,2h[8:1],,2-5[8:1]/5,6,7h[8:1],,
7-4[8:1]/5,,3-7[8:1],,6>3[8:1],,2-5[8:1],,
7-4[8:1],,3-8[8:1],2,6>3[8:1],7,2-5[8:1],1,
7-4[8:1],,3-7[8:1],,6>3[8:1],,2-6[8:1],1h[8:1],
,,1-6[8:1],,1h[8:2],,7,,
6-1[8:1]/1,,2-6[8:1],,7>2[8:1],,3-8[8:1],,
6-1[8:1],,2-5[8:1],3,7>2[8:1],6,3-8[8:1],4,
6-1[8:1],,2-6[8:1],,7>2[8:1],,3-7[8:1],4h[8:1],
,,4-7[8:1],,4h[8:2],,8,,
{8}2<7[8:4]/6,2,,3,,4,,{24}5,,6,
{8}5<8[8:4],5,,4,,3,,{24}2,,1,
{8}2>5[8:4],2,,8,,7,,{24}6,,5,
{8}6-2[8:2],6,,7,,{24}8,,3,7,,2,6,,1,
{8}5h[8:1],2,7h[8:1]/3,2,5h[8:1]/1,2,7h[8:1]/3,2,
6h[8:1]/1,3,7h[8:1]/5,3,6h[8:1]/1,3,7h[8:1]/5-1[8:1],3,
1<6[8:1],3,5-1[8:1],3,1<6[8:1],3,5-8[8:1],3,
8<5[8:1],2,4-8[8:1],2,8<5[8:1],2,4,2,
{8}1b/4,2,3b/6,4,{24}5b/8,,,4,,7,3,,6,2,,5,
{8}1-6[8:1],,5-8[8:1],,3-7[8:1],,6,5,
4-1[8:1]/2,3,6/4-8[8:1],5,{24}4b/2,,,,,3,7,,2,6,,1,
{8}5-2[8:1],,1-4[8:1],,7-3[8:1],,2,1,
8-5[8:1]/6,7,2/8-4[8:1],1,8b/6>3[8:1],,2-5[8:1],2,
{8}1-6[8:1],,3h[8:2],,8,7,8-4[8:1]/6,1,
2>5[8:1],1,6-2[8:1],7,3b,,4/1,3/8,
{8}2-5[8:1]/7-2[8:1],,2-6[8:1]/7,,3,,1/5,2/6,
3-8[8:1]/7-4[8:1],,,,1-5[8:1]/5-1[8:1],,,,
{8}4b/6-1[8:1],,{24},,,,2,3,
{8}4-8[8:1],,{24},,,,2,3,
{8}4-7[8:1],,3-8[8:1],,,,8/7,1/6,
{8}2-5[8:1]/5,,{24},,,,8,7,
{8}6>3[8:1],,{24},,,,8,7,
{8}6-1[8:1],,6h[8:4],,2,,3,,
{8}4/6-1[8:1],,{24},,,,2,3,
{8}4-8[8:1],,{24},,,,2,3,
{8}4-7[8:1],,3-8[8:1],,,,8/7-4[8:1],1,
{8}2-6[8:1],3,4-8[8:1],,3-6[8:1],,2-7[8:1],,
{8}1-5[8:1],,1h[8:4],,,,,,
{8}7h[8:7],8,,8,,8,,8,
{8}1b/7b,2,3b/7b,4,{24}5b/7b,,,4,,6,3,,5,2,,4,
{8}1-6[8:1],,4-8[8:1],,2-7[8:1],,6,5,
4-1[8:1]/2,3,8>3[8:1]/4-8[8:1],6,{24}8b/4b,,,,,4,7,,3,6,,2,
{8}5-2[8:1],,8-4[8:1],,6-3[8:1],,2,1,
8-5[8:1]/6,7,4<7[8:1]/8-4[8:1],2,4b/8b,,7/3,6/2,
{8}5-1[8:1]/1-5[8:1],,5/1<6[8:1],,3,2,1-5[8:1]/5,1,
8-4[8:1],8,7-2[8:1],7,6b,,1/6,2/7,
{8}3-8[8:1]/8-5[8:1],,8-4[8:1]/3,,6,,3/7,2/6,
1-4[8:1]/5-8[8:1],,,,{24}5b/7b,,,,,3,6,,2,5,,1,
{8}4-7[8:1],,1-5[8:1],,4-7[8:1],,3,2,
1-6[8:1]/7,6,1-4[8:1]/5<8[8:1],4,{24}1b/5b,,,,,4,7,,3,6,,2,
{8}5-2[8:1],,8-4[8:1],,5<8[8:1],,1,2,
3-6[8:1]/5,6,3-8[8:1]/7<4[8:1],8,7b/3-6[8:1],,7-3[8:1],7,
{8}1-4[8:1],,6h[8:2],,4,3,4-8[8:1]/2,5,
6<1[8:1],5,2-6[8:1],3,7b,,8/5,1/6,
{8}2-5[8:1]/7-2[8:1],,2-6[8:1]/7,,3b,,1/5,2/6,
3-8[8:1]/7-4[8:1],,3/7,,1-5[8:1]/5b,,,,
{8}4-1[8:8]/6-1[8:8],,,,,,,,
,,,,E
